Welcome Guest ( Log In | Register )

Объявления

* gmail.com упорно продолжает считать почту с нас "unsolicited" и отбивает в том числе и письма активации, поэтому просьба использовать альтернативные почтовые ящики.
------------
* gmail.com continues reject all mail from us as "unsolicited" (activation mails too) therefore please use alternate mail servers.
 
Reply to this topicStart new topic
> Sufferance - Spawn Of A Dream [ep] (2023), Old School Death Metal
post Feb 5 2024, 14:08:35
Post #1

Правь статус, ####!111
**************
Group: Металариец
Posts: 36,412
Releases: 27145
From: Г.Харьков
On Forums: 12 years 2 months
Thanks: 591282 time(s)
Ukraine


(IMG:https://metalarea.org/images/audiocovers/2024_Feb/acov_tid392003_thumb.jpg)

*Artist: Sufferance
*Album: Spawn Of A Dream [ep]
*Year: 2023
*Genre: Old School Death Metal
*Country: Australia (IMG:https://metalarea.org/forum/style_images/flags/Australia.png)
*Format: mp3@CBR320kbps
*Size: 37MB

Tracklist:
1. King of Tyre 05:13
2. Spawn of a Dream 05:17
3. Tribulation of Steel 05:21
******************************
Total playing time: 15:51




Extended info
Taylor Winch Guitars (2018-present)
Adrian von Ahlen Guitars (2020-present)
See also: ex-Amelus
Andrew Voysey Bass, Vocals (2021-present)
Jed Arklay Drums (2023-present)
See also: Amelus, Mortuary Sickness


Technical info
(IMG:https://metalarea.org/images/spectrogram/2024_Feb/1b372adc4ff29a0bcc8b888322032e89.png)
Input File: 02 - Spawn of a Dream.mp3
Channels : 2
Sample Rate : 44100
Precision : 16-bit
Duration : 00:05:16.00 = 13935600 samples = 23700 CDDA sectors
File Size : 12.9M
Bit Rate : 326k
Sample Encoding: MPEG audio (layer I, II or III)
Comments :
Title=Spawn of a Dream
Artist=Sufferance.
Album=Spawn of a Dream
Tracknumber=2
Year=2023-12-08
Genre=Metal
Discnumber=1



Register


Go to the top of the page
  Insert nick Quick quote
+Quote Post

Reply to this topicStart new topic
1 User(s) are reading this topic (1 Guests and 0 Anonymous Users)
0 Members:

 



- Lo-Fi Version Support form
Copyrights and abuse reports form
Time is now: 15th July 2024 - 21:33:50