Welcome Guest ( Log In | Register )

> И неформату есть предел.

Рэп/хип-хоп/шансон/поп удаляются. Для них есть свои порталы.

 
Reply to this topicStart new topic
> Skrika - Soludenia (2022), Dark Ambient
post Feb 10 2024, 11:01:13
Post #1

Мегаманьяк
***********
Group: Металариец
Posts: 1,879
Releases: 104
From: Санкт-Петербург
On Forums: 17 years 11 months
Thanks: 5195 time(s)
Russian Federation


(IMG:https://metalarea.org/images/audiocovers/2024_Feb/acov_tid392232_thumb.jpg)

*Artist: Skrika
*Album: Soludenia
*Year: 2022
*Genre: Dark Ambient
*Country: United Kingdom (IMG:https://metalarea.org/forum/style_images/flags/United%20Kingdom.png)
*Format: mp3@CBR320kbps
*Size: 117MB

Tracklist:
01. Kiss Of Svorle 08:08
02. Pantropic Adaptation 08:08
03. Tythlotic Trackers 08:11
04. Ice Fields Of The Eidola 09:35
05. Cerria's Lament 07:09
06. Cimmerian Walkers 08:34
******************************
Total playing time: 49:45



Technical info
(IMG:https://metalarea.org/images/spectrogram/2024_Feb/730b90d6e20ae3ccdbfa4e34a41e9196.png)
Input File: 06 - Cimmerian Walkers.mp3
Channels : 2
Sample Rate : 44100
Precision : 16-bit
Duration : 00:08:34.10 = 22671590 samples = 38557.1 CDDA sectors
File Size : 20.7M
Bit Rate : 322k
Sample Encoding: MPEG audio (layer I, II or III)
Comments :
Title=Cimmerian Walkers
Artist=Skrika
Album=Soludenia
Tracknumber=06
Year=2022
Genre=Dark Ambient



Register


Thanks:
Go to the top of the page
  Insert nick Quick quote
+Quote Post

Reply to this topicStart new topic
1 User(s) are reading this topic (1 Guests and 0 Anonymous Users)
0 Members:

 



- Lo-Fi Version Support form
Copyrights and abuse reports form
Time is now: 21st April 2024 - 11:40:53