Welcome Guest ( Log In | Register )

> И неформату есть предел.

Рэп/хип-хоп/шансон/поп удаляются. Для них есть свои порталы.

 
Reply to this topicStart new topic
> Silent Stream Of Godless Elegy - Jiná (2024), Acoustic/Folk Rock (D)
post Feb 10 2024, 15:32:24
Post #1

funeral doom fan
Group Icon
Group: S-moderation team
Posts: 5,759
Releases: 3402
From: Ростов-на-Дону
On Forums: 18 years 3 months
Thanks: 63395 time(s)
Russian Federation


(IMG:https://metalarea.org/images/audiocovers/2024_Feb/acov_tid392259_thumb.jpg)

*Artist: Silent Stream Of Godless Elegy
*Album: Jiná
*Year: 2024
*Genre: Acoustic/Folk Rock
*Country: Czech Republic (IMG:https://metalarea.org/forum/style_images/flags/Czech%20Republic.png)
*Format: mp3@CBR320kbps
*Size: 116MB

Tracklist:
1. Samodiva 05:40
2. Pod Babíma Horama 04:42
3. Přísahám 05:03
4. Skryj hlavu do dlaní 05:38
5. Sudice 03:44
6. Tichý zpěv 05:14
7. Ten, který ukoval Slunce 04:57
8. Ptakoprav 05:49
9. Malověrná 05:13
10. I Would Dance 04:35
******************************
Total playing time: 50:35



Technical info
(IMG:https://metalarea.org/images/spectrogram/2024_Feb/35f3036af01db808a545670c63ebc8a1.png)
Input File: 01 - Samodiva.mp3
Channels : 2
Sample Rate : 44100
Precision : 16-bit
Duration : 00:05:40.00 = 14994000 samples = 25500 CDDA sectors
File Size : 13.7M
Bit Rate : 322k
Sample Encoding: MPEG audio (layer I, II or III)
Comments :
Title=Samodiva
Artist=Silent Stream Of Godless Elegy
Album=Jiná
Tracknumber=1
Year=2024
Genre=Folk
Discnumber=1



Register


Go to the top of the page
  Insert nick Quick quote
+Quote Post

Reply to this topicStart new topic
1 User(s) are reading this topic (1 Guests and 0 Anonymous Users)
0 Members:

 



- Lo-Fi Version Support form
Copyrights and abuse reports form
Time is now: 21st April 2024 - 13:12:34