Welcome Guest ( Log In | Register )

 
Reply to this topicStart new topic
> Mh Ov - Chronology Of The Universe (2021), Atmospheric Black Metal (D11)
post Feb 11 2024, 12:19:10
Post #1

Правь статус, ####!111
**************
Group: Металариец
Posts: 3,898
Releases: 2566
From: Greece
On Forums: 16 years 8 months
Thanks: 26959 time(s)
Greece


(IMG:https://metalarea.org/images/audiocovers/2024_Feb/acov_tid392310_thumb.jpg)

*Artist: Mh Ov
*Album: Chronology Of The Universe
*Year: 2021
*Genre: Atmospheric Black Metal
*Country: Greece (IMG:https://metalarea.org/forum/style_images/flags/Greece.png)
*Format: mp3@CBR320kbps
*Size: 318MB

Tracklist:
1. The Big Bang 01:17
2. Planck Epoch 05:36
3. Entropy 07:18
4. Grand Unification Epoch 08:03
5. Electroweak Epoch 08:10
6. Inflationary Epoch and the Rapid Expansion of Space 03:51
7. Disorder 04:15
8. Supersymmetry Breaking 04:42
9. Electroweak Symmetry Breaking 04:02
10. Thermalisation 05:04
11. The Quark Epoch 06:12
12. Baryogenesis 05:45
13. Uncertainty 06:27
14. Hadron Epoch 05:08
15. Neutrino Decoupling and Cosmic Neutrino Background 04:44
16. Possible Formation of Primordial Black Holes 06:15
17. Lepton Epoch 04:51
18. Photon Epoch 04:06
19. Nucleosynthesis of Light Elements 04:39
20. Matter Domination 04:55
21. Recombination, Photon Decoupling, and the Cosmic Microwave Background 05:56
22. Dark Ages 04:51
23. Speculative Habitable Epoch 06:24
24. Earliest Structures and Stars Emerge 04:50
25. Reionization 04:43
26. Galaxies, Clusters and Superclusters 04:16
27. Dark Energy Dominated Era 03:42
******************************
Total playing time: 2:20:02



Technical info
(IMG:https://metalarea.org/images/spectrogram/2024_Feb/a17413557963e16eda6da1d1289cd12d.png)
Input File: 03 Entropy.mp3
Channels : 2
Sample Rate : 44100
Precision : 16-bit
Duration : 00:07:18.10 = 19320210 samples = 32857.5 CDDA sectors
File Size : 17.6M
Bit Rate : 321k
Sample Encoding: MPEG audio (layer I, II or III)
Comments :
Title=Entropy
Artist=MH OV
Album=Chronology of the universe
Tracknumber=3
Year=2021



Register


Go to the top of the page
  Insert nick Quick quote
+Quote Post

Reply to this topicStart new topic
1 User(s) are reading this topic (1 Guests and 0 Anonymous Users)
0 Members:

 



- Lo-Fi Version Support form
Copyrights and abuse reports form
Time is now: 15th April 2024 - 05:22:14