Welcome Guest ( Log In | Register )

 
Reply to this topicStart new topic
> Mh Ov - Dark Thoughts About An Enlightened World (2021), Atmospheric Black Metal (D11)
post Feb 11 2024, 12:34:23
Post #1

Правь статус, ####!111
**************
Group: Металариец
Posts: 3,865
Releases: 2540
From: Greece
On Forums: 16 years 6 months
Thanks: 26555 time(s)
Greece


(IMG:https://metalarea.org/images/audiocovers/2024_Feb/acov_tid392311_thumb.jpg)

*Artist: Mh Ov
*Album: Dark Thoughts About An Enlightened World
*Year: 2021
*Genre: Atmospheric Black Metal
*Country: Greece (IMG:https://metalarea.org/forum/style_images/flags/Greece.png)
*Format: mp3@CBR320kbps
*Size: 100MB

Tracklist:
1. Selective Social Isolation 06:30
2. Condensing the Chaos 03:48
3. Total Non-Existence 06:29
4. Pulsating Shadows 03:42
5. Inner Dead Silence 05:42
6. Stagnation, Inactivity 02:08
7. Cold Dark Matter 04:36
8. Cosmological Constant 05:04
9. Ordinary Matter 05:44
******************************
Total playing time: 43:43



Technical info
(IMG:https://metalarea.org/images/spectrogram/2024_Feb/7a2c8adc2907f4011af8d41178767855.png)
Input File: 01 Selective social isolation.mp3
Channels : 2
Sample Rate : 44100
Precision : 16-bit
Duration : 00:06:30.84 = 17236132 samples = 29313.1 CDDA sectors
File Size : 15.7M
Bit Rate : 322k
Sample Encoding: MPEG audio (layer I, II or III)
Comments :
Title=Selective social isolation
Artist=MH OV
Album=Dark thoughts about an enlightened world
Tracknumber=1
Year=2021



Register


Go to the top of the page
  Insert nick Quick quote
+Quote Post

Reply to this topicStart new topic
1 User(s) are reading this topic (1 Guests and 0 Anonymous Users)
0 Members:

 



- Lo-Fi Version Support form
Copyrights and abuse reports form
Time is now: 23rd February 2024 - 11:19:31