Welcome Guest ( Log In | Register )

> Releases Upload / Добавление релизов

Добавить релиз тут / Click here to add release
Рекомендованные обменники / Recommended file shares

> Black Hate - Via Pvrgativa: Qui Spiritu Diaboli Aguntur Hi Filii Satanae Sunt (2024), Black Metal
post Feb 11 2024, 12:34:58
Post #1

Правь статус, ####!111
**************
Group: Металариец
Posts: 35,043
Releases: 26055
From: Г.Харьков
On Forums: 11 years 9 months
Thanks: 560674 time(s)
Ukraine


(IMG:https://metalarea.org/images/audiocovers/2024_Feb/acov_tid392312_thumb.jpg)

*Artist: Black Hate
*Album: Via Pvrgativa: Qui Spiritu Diaboli Aguntur Hi Filii Satanae Sunt
*Year: 2024
*Genre: Black Metal
*Country: Mexico (IMG:https://metalarea.org/forum/style_images/flags/Mexico.png)
*Format: mp3@CBR320kbps
*Size: 126MB

Tracklist:
01. To the Firmament
02. Trembling Hands of Sorrow
03. Luminous Ruins of Death
04. Tempestad (o de la Transubstanciacion)
05. Ascension of a Burning Soul
06. Diasparagmos (o del Sacrificio)
07. Dark Night of the Soul
******************************
Total playing time: 55:13




Extended info
B.G. Ikanunna Vocals, Guitars
Satoshi Lira Drums (track 6)
J. Ambriz Guitars (rhythm)
Jonathan V. Matus Bass
Mørk Fangorn Drums (tracks 1-5, 7)


Technical info
(IMG:https://metalarea.org/images/spectrogram/2024_Feb/46bbe1da6c22096857488faa86097745.png)
Input File: 05 - Ascension of a Burning Soul.mp3
Channels : 2
Sample Rate : 44100
Precision : 16-bit
Duration : 00:09:32.30 = 25238254 samples = 42922.2 CDDA sectors
File Size : 23.0M
Bit Rate : 321k
Sample Encoding: MPEG audio (layer I, II or III)
Comments :
Title=Ascension of a Burning Soul
Artist=Black Hate
Album=Vía Purgativa:Qui Spiritu Diaboli Aguntur Hi Filii Satanae Sunt
Tracknumber=5
Year=2024



Register


Go to the top of the page
  Insert nick Quick quote
+Quote Post
 
Start new topic
Replies (1 - 1)
post Feb 14 2024, 19:21:03
Post #2

кручу наждак
**************
Group: Металариец
Posts: 6,417
Releases: 109
From: Самара
On Forums: 13 years 9 months
Thanks: 4964 time(s)
Russian Federation


А мексиканцы хороши.
Go to the top of the page
  Insert nick Quick quote
+Quote Post

Reply to this topicStart new topic
1 User(s) are reading this topic (1 Guests and 0 Anonymous Users)
0 Members:

 



- Lo-Fi Version Support form
Copyrights and abuse reports form
Time is now: 26th February 2024 - 09:00:43