Welcome Guest ( Log In | Register )

> Releases Upload / Добавление релизов

Добавить релиз тут / Click here to add release
Рекомендованные обменники / Recommended file shares

> Mh Ov - Knowledge Of The Hidden [ep] (2021), Atmospheric Black Metal (D11)
post Feb 11 2024, 12:41:31
Post #1

Правь статус, ####!111
**************
Group: Металариец
Posts: 3,870
Releases: 2542
From: Greece
On Forums: 16 years 6 months
Thanks: 26596 time(s)
Greece


(IMG:https://metalarea.org/images/audiocovers/2024_Feb/acov_tid392313_thumb.png)

*Artist: Mh Ov
*Album: Knowledge Of The Hidden [ep]
*Year: 2021
*Genre: Atmospheric Black Metal
*Country: Greece (IMG:https://metalarea.org/forum/style_images/flags/Greece.png)
*Format: mp3@CBR320kbps
*Size: 26MB

Tracklist:
1. Spiritualism 04:40
2. Theosophy 04:32
******************************
Total playing time: 9:12



Technical info
(IMG:https://metalarea.org/images/spectrogram/2024_Feb/1e164acfb8ddcdd64fcde116c16da97d.png)
Input File: MH OV - Knowledge of the hidden - 01 Spiritualism.mp3
Channels : 2
Sample Rate : 44100
Precision : 16-bit
Duration : 00:04:40.07 = 12351263 samples = 21005.5 CDDA sectors
File Size : 11.3M
Bit Rate : 323k
Sample Encoding: MPEG audio (layer I, II or III)
Comments :
Title=Spiritualism
Artist=MH OV
Album=Knowledge of the hidden
Tracknumber=1
Year=2021



Register


Go to the top of the page
  Insert nick Quick quote
+Quote Post
 
Start new topic
Replies (1 - 1)
post Feb 11 2024, 14:39:56
Post #2

Два Литра
**
Group: Завсегдатай
Posts: 132
Releases: 1
On Forums: 16 years 10 months
Thanks: 82 time(s)
Russian Federation


Продуктивные ребята. Прямо ,как Hermóðr
Go to the top of the page
  Insert nick Quick quote
+Quote Post

Reply to this topicStart new topic
1 User(s) are reading this topic (1 Guests and 0 Anonymous Users)
0 Members:

 



- Lo-Fi Version Support form
Copyrights and abuse reports form
Time is now: 26th February 2024 - 09:20:48