Welcome Guest ( Log In | Register )

 
Reply to this topicStart new topic
> Mh Ov - Voices (2021), Atmospheric Black Metal (D11)
post Feb 11 2024, 12:48:11
Post #1

Правь статус, ####!111
**************
Group: Металариец
Posts: 3,870
Releases: 2542
From: Greece
On Forums: 16 years 6 months
Thanks: 26596 time(s)
Greece


(IMG:https://metalarea.org/images/audiocovers/2024_Feb/acov_tid392314_thumb.jpg)

*Artist: Mh Ov
*Album: Voices
*Year: 2021
*Genre: Atmospheric Black Metal
*Country: Greece (IMG:https://metalarea.org/forum/style_images/flags/Greece.png)
*Format: mp3@CBR320kbps
*Size: 70MB

Tracklist:
1.I 05:27
2.II 04:56
3.III 05:38
4.IV 04:20
5.V 02:58
6.VI 03:44
7.VII 03:18
******************************
Total playing time: 30:21



Technical info
(IMG:https://metalarea.org/images/spectrogram/2024_Feb/b72cd976d286a33c93ee60247fd05bcf.png)
Input File: 01 I.mp3
Channels : 2
Sample Rate : 44100
Precision : 16-bit
Duration : 00:05:27.07 = 14423963 samples = 24530.5 CDDA sectors
File Size : 13.2M
Bit Rate : 323k
Sample Encoding: MPEG audio (layer I, II or III)
Comments :
Title=I
Artist=MH OV
Album=Voices
Tracknumber=1
Year=2021



Register


Go to the top of the page
  Insert nick Quick quote
+Quote Post

Reply to this topicStart new topic
1 User(s) are reading this topic (1 Guests and 0 Anonymous Users)
0 Members:

 



- Lo-Fi Version Support form
Copyrights and abuse reports form
Time is now: 26th February 2024 - 09:34:43