Welcome Guest ( Log In | Register )

 
Reply to this topicStart new topic
> Mh Ov - The Five Ages Of The Universe [ep] (2021), Atmospheric Black Metal (D11)
post Feb 11 2024, 12:54:22
Post #1

Правь статус, ####!111
**************
Group: Металариец
Posts: 3,865
Releases: 2540
From: Greece
On Forums: 16 years 6 months
Thanks: 26557 time(s)
Greece


(IMG:https://metalarea.org/images/audiocovers/2024_Feb/acov_tid392315_thumb.jpg)

*Artist: Mh Ov
*Album: The Five Ages Of The Universe [ep]
*Year: 2021
*Genre: Atmospheric Black Metal
*Country: Greece (IMG:https://metalarea.org/forum/style_images/flags/Greece.png)
*Format: mp3@CBR320kbps
*Size: 64MB

Tracklist:
1. The Primordial Era 06:28
2. The Stelliferous Era 04:16
3. The Degenerate Era 03:55
4. The Black Hole Era 04:12
5. The Dark Era 04:00
6. Τhe Physics of Eternity 04:57
******************************
Total playing time: 27:48



Technical info
(IMG:https://metalarea.org/images/spectrogram/2024_Feb/148e3af8869d5cf044aa4cfc0223b4b0.png)
Input File: 01 The Primordial Era.mp3
Channels : 2
Sample Rate : 44100
Precision : 16-bit
Duration : 00:06:28.88 = 17149608 samples = 29166 CDDA sectors
File Size : 15.7M
Bit Rate : 323k
Sample Encoding: MPEG audio (layer I, II or III)
Comments :
Title=The Primordial Era
Artist=MH OV
Album=The Five Ages of the Universe
Tracknumber=1
Year=2021



Register


Go to the top of the page
  Insert nick Quick quote
+Quote Post

Reply to this topicStart new topic
1 User(s) are reading this topic (1 Guests and 0 Anonymous Users)
0 Members:

 



- Lo-Fi Version Support form
Copyrights and abuse reports form
Time is now: 23rd February 2024 - 12:13:48