Welcome Guest ( Log In | Register )

> Zwielicht - The Aphotic Embrace (2024), Black Metal (D6)
post Feb 11 2024, 13:27:37
Post #1

Правь статус, ####!111
**************
Group: Металариец
Posts: 8,670
Releases: 6917
On Forums: 13 years 5 months
Thanks: 121354 time(s)
Italy


(IMG:https://metalarea.org/images/audiocovers/2024_Feb/acov_tid392316_thumb.jpg)

*Artist: Zwielicht
*Album: The Aphotic Embrace
*Year: 2024
*Genre: Black Metal
*Country: Germany (IMG:https://metalarea.org/forum/style_images/flags/Germany.png)
*Format: mp3@CBR320kbps
*Size: 111MB

Tracklist:
01.Flames Of Disobedience 01:54
02.Stench Of Rotten Deities 10:29
03.The Fallen Abbey 08:41
04.Transcendental Salvation 03:05
05.Babalon 05:52
06.Aphotic Embrace 09:16
07.Twilight Temple 07:54
******************************
Total playing time: 47:11

(IMG:https://metalarea.org/images/youtube.png)

Technical info
(IMG:https://metalarea.org/images/spectrogram/2024_Feb/a0d4113f3ed4b27463e170154bef7cd2.png)
Input File: 5.Babalon.mp3
Channels : 2
Sample Rate : 44100
Precision : 16-bit
Duration : 00:05:52.55 = 15547235 samples = 26440.9 CDDA sectors
File Size : 14.6M
Bit Rate : 331k
Sample Encoding: MPEG audio (layer I, II or III)
Comments :
Title=Babalon
Artist=Zwielicht
Album=The Aphotic Embrace
Tracknumber=5/7
Year=2024
Discnumber=1/1



Register


Go to the top of the page
  Insert nick Quick quote
+Quote Post
 
Start new topic
Replies (1 - 2)
post Feb 11 2024, 17:11:45
Post #2

Common dweller of hell
**************
Group: Металариец
Posts: 5,346
Releases: 12
From: Dnipro
On Forums: 15 years 9 months
Thanks: 2169 time(s)
Ukraine


Добротная немчура (IMG:style_emoticons/default/20.gif)
Go to the top of the page
  Insert nick Quick quote
+Quote Post
post Feb 14 2024, 14:40:26
Post #3

Литр
*
Group: Подсевший
Posts: 64
Releases: 0
On Forums: 6 years 2 months
Thanks: 65 time(s)
Unknown


Хороши, несмотря на не самую приметную обложку. Особенно понравились длинные композиции.
Go to the top of the page
  Insert nick Quick quote
+Quote Post

Reply to this topicStart new topic
1 User(s) are reading this topic (1 Guests and 0 Anonymous Users)
0 Members:

 



- Lo-Fi Version Support form
Copyrights and abuse reports form
Time is now: 19th April 2024 - 22:40:36