Welcome Guest ( Log In | Register )

 
Reply to this topicStart new topic
> The Usurper - Usurper Attack [single] (2023), Thrash Metal
post Feb 11 2024, 15:32:09
Post #1

Правь статус, ####!111
**************
Group: Металариец
Posts: 3,898
Releases: 2566
From: Greece
On Forums: 16 years 8 months
Thanks: 26959 time(s)
Greece


(IMG:https://metalarea.org/images/audiocovers/2024_Feb/acov_tid392318_thumb.jpg)

*Artist: The Usurper
*Album: Usurper Attack [single]
*Year: 2023
*Genre: Thrash Metal
*Country: Greece (IMG:https://metalarea.org/forum/style_images/flags/Greece.png)
*Format: mp3@CBR320kbps
*Size: 9MB

Tracklist:
1.Usurper Attack 03:44
******************************
Total playing time: 3:44


Preview 2
(IMG:https://metalarea.org/images/youtube.png)

Technical info
(IMG:https://metalarea.org/images/spectrogram/2024_Feb/1d4ead2eeed18332e9f0ada88d1ce8e1.png)
Input File: 1.Usurper Attack.mp3
Channels : 2
Sample Rate : 48000
Precision : 16-bit
Duration : 00:03:44.76 = 10788480 samples ~ 16857 CDDA sectors
File Size : 9.12M
Bit Rate : 325k
Sample Encoding: MPEG audio (layer I, II or III)
Comments :
Title=Usurper Attack
Artist=The Usurper
Album=Usurper Attack
Year=2024



Register


Go to the top of the page
  Insert nick Quick quote
+Quote Post

Reply to this topicStart new topic
1 User(s) are reading this topic (1 Guests and 0 Anonymous Users)
0 Members:

 



- Lo-Fi Version Support form
Copyrights and abuse reports form
Time is now: 15th April 2024 - 04:52:57