Welcome Guest ( Log In | Register )

> Releases Upload / Добавление релизов

Добавить релиз тут / Click here to add release
Рекомендованные обменники / Recommended file shares

> War Inside - Almighty Earth (2024), Black/Death Metal (D5)
post Feb 11 2024, 15:35:32
Post #1

Правь статус, ####!111
**************
Group: Металариец
Posts: 35,043
Releases: 26055
From: Г.Харьков
On Forums: 11 years 9 months
Thanks: 560672 time(s)
Ukraine


(IMG:https://metalarea.org/images/audiocovers/2024_Feb/acov_tid392319_thumb.jpg)

*Artist: War Inside
*Album: Almighty Earth
*Year: 2024
*Genre: Black/Death Metal
*Country: France (IMG:https://metalarea.org/forum/style_images/flags/France.png)
*Format: mp3@CBR320kbps
*Size: 106MB

Tracklist:
01. Suyrumama
02. Almighty Earth
03. Dead Will Never Die
04. Mist of Chaos
05. My Ineffable Wrath
06. The Hell You Built
07. Unleashing
08. Under the Curse
******************************
Total playing time: 42:46



Extended info
Thomas Chamereau Drums
See also: Koudeta
Edouard Guitars
Nerik Guitars (lead) (2018-present)
See also: ex-Eat Your Dead, ex-R.A.Z., ex-Atrocia, ex-Instant Zero, ex-44 DTC, ex-Back ta Beat Ya, ex-Bleed for Us, ex-Harmful, ex-Machette, ex-Nerictor's Cut, ex-Tromatized Youth, ex-We Never Laugh
Olive Bass (2022-present)
See also: HellZeimer
Kratos Vocals (2023-present)
See also: Circles ov Hell, ex-Frénésie


Technical info
(IMG:https://metalarea.org/images/spectrogram/2024_Feb/f0ad3f1ea4ea26a946a0b0a1cd33210d.png)
Input File: 05. My Ineffable Wrath.mp3
Channels : 2
Sample Rate : 44100
Precision : 16-bit
Duration : 00:05:04.09 = 13410149 samples = 22806.4 CDDA sectors
File Size : 12.5M
Bit Rate : 330k
Sample Encoding: MPEG audio (layer I, II or III)
Comments :
Title=My Ineffable Wrath
Artist=War Inside
Album=Almighty Earth
Tracknumber=05
Year=2024
Genre=Metal



Register


Go to the top of the page
  Insert nick Quick quote
+Quote Post
 
Start new topic
Replies (1 - 1)
post Feb 14 2024, 02:47:25
Post #2
BAN
Banned till
Mar 17 2024, 02:44:34



Нажористо так, не тупо, вкачивают.
Go to the top of the page
  Insert nick Quick quote
+Quote Post

Reply to this topicStart new topic
1 User(s) are reading this topic (1 Guests and 0 Anonymous Users)
0 Members:

 



- Lo-Fi Version Support form
Copyrights and abuse reports form
Time is now: 26th February 2024 - 08:22:46