Welcome Guest ( Log In | Register )

 
Reply to this topicStart new topic
> The Usurper - Of Fire And Soul [ep] (2024), Thrash Metal
post Feb 11 2024, 15:35:51
Post #1

Правь статус, ####!111
**************
Group: Металариец
Posts: 3,898
Releases: 2566
From: Greece
On Forums: 16 years 8 months
Thanks: 26958 time(s)
Greece


(IMG:https://metalarea.org/images/audiocovers/2024_Feb/acov_tid392320_thumb.jpg)

*Artist: The Usurper
*Album: Of Fire And Soul [ep]
*Year: 2024
*Genre: Thrash Metal
*Country: Greece (IMG:https://metalarea.org/forum/style_images/flags/Greece.png)
*Format: mp3@CBR320kbps
*Size: 41MB

Tracklist:
1.Fire Walk with Me
2.Through Meltic Plastic
3.Dead and Gone
4.Social Disorder
5.Born to Die
******************************
Total playing time: 17:56


Preview 2
(IMG:https://metalarea.org/images/youtube.png)

Technical info
(IMG:https://metalarea.org/images/spectrogram/2024_Feb/0b60653ff3ff642dec4932276a894a77.png)
Input File: 1.Fire Walk with Me.mp3
Channels : 2
Sample Rate : 44100
Precision : 16-bit
Duration : 00:03:40.06 = 9704734 samples = 16504.6 CDDA sectors
File Size : 8.80M
Bit Rate : 320k
Sample Encoding: MPEG audio (layer I, II or III)
Comments :
Artist=The Usurper
Album=Of Fire and Soul
Year=2024
Genre=9



Register


Go to the top of the page
  Insert nick Quick quote
+Quote Post

Reply to this topicStart new topic
1 User(s) are reading this topic (1 Guests and 0 Anonymous Users)
0 Members:

 



- Lo-Fi Version Support form
Copyrights and abuse reports form
Time is now: 15th April 2024 - 03:37:19