Welcome Guest ( Log In | Register )

> Chainsaw - Satan (2024), Black/Thrash Metal (D)
post Feb 11 2024, 15:40:53
Post #1

Правь статус, ####!111
**************
Group: Металариец
Posts: 3,897
Releases: 2565
From: Greece
On Forums: 16 years 8 months
Thanks: 26949 time(s)
Greece


(IMG:https://metalarea.org/images/audiocovers/2024_Feb/acov_tid392321_thumb.jpg)

*Artist: Chainsaw
*Album: Satan
*Year: 2024
*Genre: Black/Thrash Metal
*Country: Greece (IMG:https://metalarea.org/forum/style_images/flags/Greece.png)
*Format: mp3@CBR320kbps
*Size: 88MB

Tracklist:
1. Mentor of the Tormentor 03:18
2. Burn His Corpse 03:58
3. Boiling Cauldron 03:29
4. Death by 69 03:16
5. Cry Blood 04:16
6. Satan 04:32
7. Go for the Throat 04:11
8. Amok 01:45
9. The Dead Watch You 04:59
10. Full of Evil 05:17
******************************
Total playing time: 39:01


(IMG:https://metalarea.org/images/youtube.png)


Technical info
(IMG:https://metalarea.org/images/spectrogram/2024_Feb/b6721fb458fcf1d1976a0f0ef7ef5188.png)
Input File: 01.Mentor Of The Tormentor.mp3
Channels : 2
Sample Rate : 44100
Precision : 16-bit
Duration : 00:03:18.15 = 8738195 samples = 14860.9 CDDA sectors
File Size : 7.93M
Bit Rate : 320k
Sample Encoding: MPEG audio (layer I, II or III)
Comments :
Artist=Chainsaw
Year=0
Genre=12



Register

Register


Go to the top of the page
  Insert nick Quick quote
+Quote Post
 
Start new topic
Replies (1 - 2)
post Feb 13 2024, 18:14:19
Post #2

Black Death Grind Madness
*******
Group: Металариец
Posts: 710
Releases: 0
From: Cassilandia
On Forums: 15 years 9 months
Thanks: 83 time(s)
Brazil


Flac possible? Thanks
Go to the top of the page
  Insert nick Quick quote
+Quote Post
post Mar 2 2024, 19:00:48
Post #3

Правь статус, ####!111
Group Icon
Group: S-moderation team
Posts: 6,551
Releases: 2059
On Forums: 17 years 7 months
Thanks: 65323 time(s)
Saudi Arabia


Added links by AHBAnep
Go to the top of the page
  Insert nick Quick quote
+Quote Post

Reply to this topicStart new topic
1 User(s) are reading this topic (1 Guests and 0 Anonymous Users)
0 Members:

 



- Lo-Fi Version Support form
Copyrights and abuse reports form
Time is now: 14th April 2024 - 09:13:27