Welcome Guest ( Log In | Register )

 
Reply to this topicStart new topic
> Repterra - Revelations [ep] (2024), Death/Thrash/Groove Metal
post Feb 11 2024, 16:22:24
Post #1

Правь статус, ####!111
**************
Group: Металариец
Posts: 35,617
Releases: 26512
From: Г.Харьков
On Forums: 11 years 11 months
Thanks: 573334 time(s)
Ukraine


(IMG:https://metalarea.org/images/audiocovers/2024_Feb/acov_tid392322_thumb.jpg)

*Artist: Repterra
*Album: Revelations [ep]
*Year: 2024
*Genre: Death/Thrash/Groove Metal
*Country: United States (IMG:https://metalarea.org/forum/style_images/flags/United%20States.png)
*Format: mp3@CBR320kbps
*Size: 46MB

Tracklist:
01. Revelations
02. Pathogen
03. Great White (24’ Verison)
04. Slingblade
******************************
Total playing time: 19:48

(IMG:https://metalarea.org/images/youtube.png)

Technical info
(IMG:https://metalarea.org/images/spectrogram/2024_Feb/32cae749ad4461fd4919d4723408c378.png)
Input File: 04 - Slingblade.mp3
Channels : 2
Sample Rate : 44100
Precision : 16-bit
Duration : 00:06:24.00 = 16934400 samples = 28800 CDDA sectors
File Size : 15.7M
Bit Rate : 327k
Sample Encoding: MPEG audio (layer I, II or III)
Comments :
Title=Slingblade
Artist=Repterra
Album=REVELATIONS
Tracknumber=4
Year=2024-02-11
Genre=Metal
Discnumber=1



Register


Go to the top of the page
  Insert nick Quick quote
+Quote Post

Reply to this topicStart new topic
1 User(s) are reading this topic (1 Guests and 0 Anonymous Users)
0 Members:

 



- Lo-Fi Version Support form
Copyrights and abuse reports form
Time is now: 21st April 2024 - 12:44:08