Welcome Guest ( Log In | Register )

> 

Здесь релизы с живыми прямыми ссылками на lossless

> Wormsden - Raising The Citadel [demo] (2024), Black Metal
post Feb 11 2024, 18:20:30
Post #1

Правь статус, ####!111
**************
Group: Металариец
Posts: 7,270
Releases: 6649
From: Одесса
On Forums: 15 years 8 months
Thanks: 77387 time(s)
Ukraine


(IMG:https://metalarea.org/images/audiocovers/2024_Feb/acov_tid392324_thumb.png)

*Artist: Wormsden
*Album: Raising The Citadel [demo]
*Year: 2024
*Genre: Black Metal
*Country: Russian Federation (IMG:https://metalarea.org/forum/style_images/flags/Russian%20Federation.png)
*Format: flac
*Size: 120MB

Tracklist:
1. Whirlwind Choir 06:06
2. Nosferion 06:56
3. Kuoleva Lupaus (Horna cover) 07:16
******************************
Total playing time: 20:18



Extended info
BANDCAMP FLAC

Line - up:

Dei Stultus - Bass
P.G. - Drums
Graf Akinetos - Guitars
Unlight - Guitars
Coyote - Vocals


Technical info
(IMG:https://metalarea.org/images/spectrogram/2024_Feb/906f645a185792ca4227a3af7cc49deb.png)
Input File: 02 Nosferion.flac
Channels : 2
Sample Rate : 44100
Precision : 16-bit
Duration : 00:06:56.00 = 18345600 samples = 31200 CDDA sectors
File Size : 41.1M
Bit Rate : 790k
Sample Encoding: 16-bit FLAC
Comments :
Album=Raising the Citadel (Demo)
Artist=Wormsden
Lyrics=What would be the smell of the river,
If the molted snow would wash the piles of corpses?
The dew of blood would arise
The hunger for nocturnal carnage



Register


Go to the top of the page
  Insert nick Quick quote
+Quote Post
 
Start new topic
Replies (1 - 1)
post Feb 12 2024, 12:41:38
Post #2

Литр
*
Group: Подсевший
Posts: 95
Releases: 0
From: Львів
On Forums: 11 years 4 months
Thanks: 97 time(s)
Ukraine


Очень достойно
Go to the top of the page
  Insert nick Quick quote
+Quote Post

Reply to this topicStart new topic
2 User(s) are reading this topic (2 Guests and 0 Anonymous Users)
0 Members:

 



- Lo-Fi Version Support form
Copyrights and abuse reports form
Time is now: 26th February 2024 - 08:30:00