Welcome Guest ( Log In | Register )

> Releases Upload / Добавление релизов

Добавить релиз тут / Click here to add release
Рекомендованные обменники / Recommended file shares

 
Reply to this topicStart new topic
> Temple Of Set - At Rest [demo] (2024), Doom Metal/Sludge
post Feb 11 2024, 18:36:16
Post #1

Правь статус, ####!111
**************
Group: Металариец
Posts: 7,270
Releases: 6649
From: Одесса
On Forums: 15 years 8 months
Thanks: 77387 time(s)
Ukraine


(IMG:https://metalarea.org/images/audiocovers/2024_Feb/acov_tid392325_thumb.jpg)

*Artist: Temple Of Set
*Album: At Rest [demo]
*Year: 2024
*Genre: Doom Metal/Sludge
*Country: United States (IMG:https://metalarea.org/forum/style_images/flags/United%20States.png)
*Format: mp3@CBR320kbps
*Size: 46MB

Tracklist:
1. Witchcraft 10:43
2. The Hive 10:43
******************************
Total playing time: 21:26



Extended info
BANDCAMP FLAC RIP

Temple of Set’s second and final lost demo, this was our last recording, taking place in 2007.

Line - up:

Mike Gilpatrick - Bass (Enhailer, Mockingbird, ex-Rue, ex-Ultralord)
Walter J. Howell - Drums (Avowal, Foul Spirits, Master Bastard, ex-Ketamine, ex-Nailblack, ex-NDE, ex-Rue, ex-Caucasion Persuasion, ex-Episode 17, ex-Pillow Humpers, ex-Tex Avery, ex-The Unclean)
Thomas Muron - Guitars (ex-Mockingbird)
Bucky Bartlett - Vocals


Technical info
(IMG:https://metalarea.org/images/spectrogram/2024_Feb/7e40823540ad0efc056a0c01a32a90fe.png)
Input File: 01. Witchcraft.mp3
Channels : 2
Sample Rate : 44100
Precision : 16-bit
Duration : 00:10:43.12 = 28361636 samples = 48234.1 CDDA sectors
File Size : 25.8M
Bit Rate : 321k
Sample Encoding: MPEG audio (layer I, II or III)
Comments :
Title=Witchcraft
Artist=Temple of Set
Album=‘At Rest’ Demo 2007 (Demo)
Tracknumber=1
Year=2024
Genre=Doom | Sludge Metal



Register


Go to the top of the page
  Insert nick Quick quote
+Quote Post

Reply to this topicStart new topic
1 User(s) are reading this topic (1 Guests and 0 Anonymous Users)
0 Members:

 



- Lo-Fi Version Support form
Copyrights and abuse reports form
Time is now: 26th February 2024 - 08:43:00