Welcome Guest ( Log In | Register )

> 

Здесь релизы с живыми прямыми ссылками на lossless

 
Reply to this topicStart new topic
> Split In Half - Punishment [ep] (2024), Deathcore
post Feb 11 2024, 18:53:17
Post #1

Правь статус, ####!111
**************
Group: Металариец
Posts: 7,270
Releases: 6649
From: Одесса
On Forums: 15 years 8 months
Thanks: 77388 time(s)
Ukraine


(IMG:https://metalarea.org/images/audiocovers/2024_Feb/acov_tid392326_thumb.jpg)

*Artist: Split In Half
*Album: Punishment [ep]
*Year: 2024
*Genre: Deathcore
*Country: United States (IMG:https://metalarea.org/forum/style_images/flags/United%20States.png)
*Format: flac
*Size: 104MB

Tracklist:
1. Rusty Maiming (feat. Abaddon) 02:18
2. Manufacture Collapse 02:49
3. Dead and Shameful 02:58
4. Ruled by Serpents 02:26
5. Religious Violence 02:30
******************************
Total playing time: 13:01



Technical info
(IMG:https://metalarea.org/images/spectrogram/2024_Feb/da857a744b6ae00feebaf8fe76fd7de4.png)
Input File: 01. Rusty Maiming.flac
Channels : 2
Sample Rate : 44100
Precision : 16-bit
Duration : 00:02:18.50 = 6107850 samples = 10387.5 CDDA sectors
File Size : 17.1M
Bit Rate : 990k
Sample Encoding: 16-bit FLAC
Comments :
Album=Punishment (EP)
Artist=Split in Half
Artist=Abandon
ISRC=TCAHX2446138
Album Artist=Split in Half
Genre=Deathcore
Date=2024
Organization=Split in Half
Title=Rusty Maiming
TrackNumber=1
BARCODE=859783874731
LENGTH=138000
Description=



Register


Go to the top of the page
  Insert nick Quick quote
+Quote Post

Reply to this topicStart new topic
1 User(s) are reading this topic (1 Guests and 0 Anonymous Users)
0 Members:

 



- Lo-Fi Version Support form
Copyrights and abuse reports form
Time is now: 26th February 2024 - 08:55:37