Welcome Guest ( Log In | Register )

> Releases Upload / Добавление релизов

Добавить релиз тут / Click here to add release
Рекомендованные обменники / Recommended file shares

 
Reply to this topicStart new topic
> Besieged - Aggressor [ep] (2015), Thrash/Death Metal (D)
post Feb 11 2024, 19:33:48
Post #1

Правь статус, ####!111
**************
Group: Металариец
Posts: 35,043
Releases: 26055
From: Г.Харьков
On Forums: 11 years 9 months
Thanks: 560676 time(s)
Ukraine


(IMG:https://metalarea.org/images/audiocovers/2024_Feb/acov_tid392327_thumb.jpg)

*Artist: Besieged
*Album: Aggressor [ep]
*Year: 2015
*Genre: Thrash/Death Metal
*Country: United Kingdom (IMG:https://metalarea.org/forum/style_images/flags/United%20Kingdom.png)
*Format: mp3@CBR320kbps
*Size: 44MB

Tracklist:
1. Flash, Heat, Sound (intro) 01:02
2. Besieged 03:20
3. Bloodbath On Floor 16 03:03
4. Aggressor 04:09
5. Born In The Vault 02:17
6. The Oathbreaker 04:46
******************************
Total playing time: 18:37




Extended info
Matt Bass (?-2017, 2023-present)
See also: ex-Orylyus
Ash Drums (?-2017, 2023-present)
See also: Apparition, ex-Musta Talvi, ex-Subsidian, ex-Orylyus, ex-Benediction, ex-Celestial Wish
Jez Guitars (?-2017, 2023-present)
See also: ex-Endless Torment
Foxhound Guitars (?-2017, 2023-present)
See also: Anaal Nathrakh (live), ex-Musta Talvi, ex-Benediction (live), ex-H.O.S.T.I.L.E., ex-Sons of Chaos, ex-Lake on Fire
Aggressor Vocals (?-2017, 2023-present)
See also: ex-Endless Torment


Technical info
(IMG:https://metalarea.org/images/spectrogram/2024_Feb/18931f5824ad5eda9a78981711700c8e.png)
Input File: 06 - The Oathbreaker.mp3
Channels : 2
Sample Rate : 44100
Precision : 16-bit
Duration : 00:04:46.00 = 12612600 samples = 21450 CDDA sectors
File Size : 11.7M
Bit Rate : 327k
Sample Encoding: MPEG audio (layer I, II or III)
Comments :
Title=The Oathbreaker
Artist=Besieged
Album=Aggressor
Tracknumber=6
Year=2023-12-16
Genre=Metal
Discnumber=1



Register


Go to the top of the page
  Insert nick Quick quote
+Quote Post

Reply to this topicStart new topic
1 User(s) are reading this topic (1 Guests and 0 Anonymous Users)
0 Members:

 



- Lo-Fi Version Support form
Copyrights and abuse reports form
Time is now: 26th February 2024 - 09:10:02