Welcome Guest ( Log In | Register )

> Releases Upload / Добавление релизов

Добавить релиз тут / Click here to add release
Рекомендованные обменники / Recommended file shares

 
Reply to this topicStart new topic
> August Burns Red - Twenty Year Tour Live [live] (2024), Progressive Metalcore (D)
post Feb 11 2024, 20:16:40
Post #1

Три Литра
***
Group: Завсегдатай
Posts: 244
Releases: 37
On Forums: 1 year 10 months
Thanks: 954 time(s)
Russian Federation


(IMG:https://metalarea.org/images/audiocovers/2024_Feb/acov_tid392328_thumb.jpg)

*Artist: August Burns Red
*Album: Twenty Year Tour Live [live]
*Year: 2024
*Genre: Progressive Metalcore
*Country: United States (IMG:https://metalarea.org/forum/style_images/flags/United%20States.png)
*Format: mp3@CBR320kbps
*Size: 208MB

Tracklist:
01. Intro
02. Fault Line (Tempe, AZ)
03. Truth of a Liar (Toronto, ON)
04. Marianas Trench (Nashville, TN)
05. Empire (Denver, CO)
06. Martyr (Dallas, TX)
07. Ancestry (Atlanta, GA)
08. Eleventh Hour (Quebec City, QC)
09. Carpe Diem (Philadelphia, PA)
10. Invisible Enemy (Worcester, MA)
11. Meddler (Anaheim, CA)
12. Your Little Suburbia is in Ruins (Salt Lake City, UT)
13. Backfire (Detroit, MI)
14. Laniakea (St. Louis, MO)
15. Provision (Portland, OR)
16. Ghosts (New York, NY)
17. Meridian (Cleveland, OH)
18. Back Burner (Richmond, VA)
19. Spirit Breaker (Seattle, WA)
20. Composure (Charlotte, NC)
21. White Washed (Montreal, QC)
******************************
Total playing time: 1:31:07

Technical info
(IMG:https://metalarea.org/images/spectrogram/2024_Feb/af3f42df9d64e36db3145f4345f8c7a3.png)
Input File: 05. Ancestry Live in Atlanta, GA.mp3
Channels : 2
Sample Rate : 44100
Precision : 16-bit
Duration : 00:04:58.00 = 13141712 samples = 22349.9 CDDA sectors
File Size : 11.9M
Bit Rate : 320k
Sample Encoding: MPEG audio (layer I, II or III)
Comments :
Title=Ancestry (Live in Atlanta, GA)
Artist=August Burns Red
Album=Twenty Year Tour Live
Tracknumber=05
Year=2024
Genre=Metalcore



Register


Thanks:
Go to the top of the page
  Insert nick Quick quote
+Quote Post

Reply to this topicStart new topic
1 User(s) are reading this topic (1 Guests and 0 Anonymous Users)
0 Members:

 



- Lo-Fi Version Support form
Copyrights and abuse reports form
Time is now: 26th February 2024 - 09:30:01