Welcome Guest ( Log In | Register )

> Releases Upload / Добавление релизов

Добавить релиз тут / Click here to add release
Рекомендованные обменники / Recommended file shares

 
Reply to this topicStart new topic
> Sekterist - Flesh Into Fire [ep] (2023), Death Metal
post Feb 11 2024, 21:45:42
Post #1

Правь статус, ####!111
**************
Group: Металариец
Posts: 35,043
Releases: 26055
From: Г.Харьков
On Forums: 11 years 9 months
Thanks: 560677 time(s)
Ukraine


(IMG:https://metalarea.org/images/audiocovers/2024_Feb/acov_tid392329_thumb.jpg)

*Artist: Sekterist
*Album: Flesh Into Fire [ep]
*Year: 2023
*Genre: Death Metal
*Country: Sweden (IMG:https://metalarea.org/forum/style_images/flags/Sweden.png)
*Format: mp3@CBR320kbps
*Size: 44MB

Tracklist:
1. Flesh Into Fire 05:40
2. Wretched Pulp 04:00
3. Servants to Slaves 04:35
4. With Pigs and Men Alike 04:48
******************************
Total playing time: 19:03

Preview 1

Extended info
Simon Frödeberg Karlin All Instruments
See also: Svederna



Technical info
(IMG:https://metalarea.org/images/spectrogram/2024_Feb/077b72899161d34119accde26d275715.png)
Input File: 04 - With Pigs and Men Alike.mp3
Channels : 2
Sample Rate : 44100
Precision : 16-bit
Duration : 00:04:48.00 = 12700800 samples = 21600 CDDA sectors
File Size : 11.6M
Bit Rate : 323k
Sample Encoding: MPEG audio (layer I, II or III)
Comments :
Title=With Pigs and Men Alike
Artist=Sekterist
Album=Flesh Into Fire
Tracknumber=4
Year=2023-10-13
Genre=Rock
Discnumber=1



Register


Go to the top of the page
  Insert nick Quick quote
+Quote Post

Reply to this topicStart new topic
1 User(s) are reading this topic (1 Guests and 0 Anonymous Users)
0 Members:

 



- Lo-Fi Version Support form
Copyrights and abuse reports form
Time is now: 26th February 2024 - 09:43:07