Welcome Guest ( Log In | Register )

> Releases Upload / Добавление релизов

Добавить релиз тут / Click here to add release
Рекомендованные обменники / Recommended file shares

 
Reply to this topicStart new topic
> Black Swan Opera - Act 1 [ep] (2024), Heavy/Power Metal
post Feb 12 2024, 05:09:40
Post #1

Правь статус, ####!111
**************
Group: Металариец
Posts: 8,258
Releases: 6512
On Forums: 13 years 3 months
Thanks: 113871 time(s)
Italy


(IMG:https://metalarea.org/images/audiocovers/2024_Feb/acov_tid392330_thumb.jpg)

*Artist: Black Swan Opera
*Album: Act 1 [ep]
*Year: 2024
*Genre: Heavy/Power Metal
*Country: Belgium (IMG:https://metalarea.org/forum/style_images/flags/Belgium.png)
*Format: mp3@CBR320kbps
*Size: 28MB

Tracklist:
1.Black Swan Opera 03:57
2.Dying 03:35
3.First Ray of Sun 04:29
******************************
Total playing time: 12:01

(IMG:https://metalarea.org/images/youtube.png)
(IMG:https://metalarea.org/images/youtube.png)

Technical info
(IMG:https://metalarea.org/images/spectrogram/2024_Feb/448857355d72ee353b56a29a088eecb5.png)
Input File: 2.Dying.mp3
Channels : 2
Sample Rate : 44100
Precision : 16-bit
Duration : 00:03:35.24 = 9491952 samples = 16142.8 CDDA sectors
File Size : 8.81M
Bit Rate : 328k
Sample Encoding: MPEG audio (layer I, II or III)
Comments :
Title=Dying
Artist=Black Swan Opera
Album=Act 1
Tracknumber=2/3
Year=2024
Discnumber=1/1



Register


Go to the top of the page
  Insert nick Quick quote
+Quote Post

Reply to this topicStart new topic
1 User(s) are reading this topic (1 Guests and 0 Anonymous Users)
0 Members:

 



- Lo-Fi Version Support form
Copyrights and abuse reports form
Time is now: 26th February 2024 - 08:46:35