Welcome Guest ( Log In | Register )

> Releases Upload / Добавление релизов

Добавить релиз тут / Click here to add release
Рекомендованные обменники / Recommended file shares

 
Reply to this topicStart new topic
> Whisper - Xenogenesis [ep] (2024), Death Metal (D6)
post Feb 12 2024, 05:13:22
Post #1

Правь статус, ####!111
**************
Group: Металариец
Posts: 8,258
Releases: 6512
On Forums: 13 years 3 months
Thanks: 113873 time(s)
Italy


(IMG:https://metalarea.org/images/audiocovers/2024_Feb/acov_tid392331_thumb.jpg)

*Artist: Whisper
*Album: Xenogenesis [ep]
*Year: 2024
*Genre: Death Metal
*Country: Finland (IMG:https://metalarea.org/forum/style_images/flags/Finland.png)
*Format: mp3@CBR320kbps
*Size: 46MB

Tracklist:
1.Phantasmagoria 04:28
2.Immortal Eyes 06:08
3.Extraterrestrial Seeds Bursting Forth in Quantum Dimensions, Initiating a Burgeoning Epoch Beyond Mortal Perceptions, Preventing The Transmigration of Souls To The Beyond And The Dawn of The Last Day (Измерение Души — The Soul Dimension) 02:39
4.Xenogenesis 06:28
******************************
Total playing time: 19:43



Technical info
(IMG:https://metalarea.org/images/spectrogram/2024_Feb/d382bfb2883171739eabf9bbd227d9c5.png)
Input File: 1.Phantasmagoria.mp3
Channels : 2
Sample Rate : 44100
Precision : 16-bit
Duration : 00:04:28.74 = 11851390 samples = 20155.4 CDDA sectors
File Size : 11.1M
Bit Rate : 330k
Sample Encoding: MPEG audio (layer I, II or III)
Comments :
Title=Phantasmagoria
Artist=Whisper
Album=Xenogenesis
Tracknumber=1/4
Year=2024
Discnumber=1/1



Register


Go to the top of the page
  Insert nick Quick quote
+Quote Post

Reply to this topicStart new topic
1 User(s) are reading this topic (1 Guests and 0 Anonymous Users)
0 Members:

 



- Lo-Fi Version Support form
Copyrights and abuse reports form
Time is now: 26th February 2024 - 09:01:25