Welcome Guest ( Log In | Register )

> Releases Upload / Добавление релизов

Добавить релиз тут / Click here to add release
Рекомендованные обменники / Recommended file shares

 
Reply to this topicStart new topic
> Meia Noite - Hora Grande [ep] (2023), Black/Heavy Metal
post Feb 12 2024, 05:16:50
Post #1

Правь статус, ####!111
**************
Group: Металариец
Posts: 8,258
Releases: 6512
On Forums: 13 years 3 months
Thanks: 113873 time(s)
Italy


(IMG:https://metalarea.org/images/audiocovers/2024_Feb/acov_tid392332_thumb.jpg)

*Artist: Meia Noite
*Album: Hora Grande [ep]
*Year: 2023
*Genre: Black/Heavy Metal
*Country: Brazil (IMG:https://metalarea.org/forum/style_images/flags/Brazil.png)
*Format: mp3@VBR280kbps
*Size: 51MB

Tracklist:
1.Intro 00:48
2.Mortus 04:26
3.Hora Grande 03:10
4.Fora, Honra e Metal 04:08
5.Entregue sua Alma ao Inferno 03:55
6.No Haver Compaixo 04:12
7.Bruxaria 04:18
******************************
Total playing time: 24:57

(IMG:https://metalarea.org/images/youtube.png)
(IMG:https://metalarea.org/images/youtube.png)

Extended info
Scene CD rip


Technical info
(IMG:https://metalarea.org/images/spectrogram/2024_Feb/92bd2fb18cc735344a8015fdf860bd8e.png)
Input File: 04-meia_noite-forca_honra_e_metal-berc.mp3
Channels : 2
Sample Rate : 44100
Precision : 16-bit
Duration : 00:04:08.87 = 10975079 samples = 18665.1 CDDA sectors
File Size : 8.80M
Bit Rate : 283k
Sample Encoding: MPEG audio (layer I, II or III)
Comments :
Title=Força, Honra e Metal
Artist=Meia Noite
Album=Hora Grande
Tracknumber=4/7
Year=2023
Genre=Black Metal
Discnumber=1/1



Register


Go to the top of the page
  Insert nick Quick quote
+Quote Post

Reply to this topicStart new topic
1 User(s) are reading this topic (1 Guests and 0 Anonymous Users)
0 Members:

 



- Lo-Fi Version Support form
Copyrights and abuse reports form
Time is now: 26th February 2024 - 09:21:39