Welcome Guest ( Log In | Register )

> Releases Upload / Добавление релизов

Добавить релиз тут / Click here to add release
Рекомендованные обменники / Recommended file shares

 
Reply to this topicStart new topic
> Gomorraa & Nordeath & Retaliador & Total Desastre - Deathrashers: Ensaios Sobre O Apocalipse [split] (2023), Black/Thrash Metal | Speed/Black Metal | Thrash Metal | Death/Thrash M
post Feb 12 2024, 05:29:49
Post #1

Правь статус, ####!111
**************
Group: Металариец
Posts: 8,258
Releases: 6512
On Forums: 13 years 3 months
Thanks: 113874 time(s)
Italy


(IMG:https://metalarea.org/images/audiocovers/2024_Feb/acov_tid392333_thumb.jpg)

*Artist: Gomorraa & Nordeath & Retaliador & Total Desastre
*Album: Deathrashers: Ensaios Sobre O Apocalipse [split]
*Year: 2023
*Genre: Black/Thrash Metal | Speed/Black Metal | Thrash Metal | Death/Thrash Metal
*Country: Brazil (IMG:https://metalarea.org/forum/style_images/flags/Brazil.png) | Brazil (IMG:https://metalarea.org/forum/style_images/flags/Brazil.png) | Brazil (IMG:https://metalarea.org/forum/style_images/flags/Brazil.png) | Brazil (IMG:https://metalarea.org/forum/style_images/flags/Brazil.png)
*Format: mp3@VBR223kbps
*Size: 53MB

Tracklist:
Gomorraa:
1.Negro Culto às Bruxas 06:04
2.Negro vômito da Morte 00:54
Nordeath:
3.Condessa de Sangue 03:24
4.Messias dos Tolos 04:22
Retaliador:
5.A insanidade continua 03:35
6.Currais do Governo 04:43
Total Desastre:
7.Fúria Metal 05:06
8.Morte, Sangue, Guerra 04:25
******************************
Total playing time: 32:33

Technical info
(IMG:https://metalarea.org/images/spectrogram/2024_Feb/5b39c4cd7560441090bad4f47180ce6b.png)
Input File: 04-nordeath-messias_dos_tolos-berc.mp3
Channels : 2
Sample Rate : 44100
Precision : 16-bit
Duration : 00:04:22.64 = 11582204 samples = 19697.6 CDDA sectors
File Size : 5.37M
Bit Rate : 164k
Sample Encoding: MPEG audio (layer I, II or III)
Comments :
Title=Messias dos Tolos
Artist=Nordeath
Album=Deathrashers: Ensaios Sobre o Apocalipse
Tracknumber=4/8
Year=2023
Genre=Metal
Discnumber=1/1



Register


Go to the top of the page
  Insert nick Quick quote
+Quote Post

Reply to this topicStart new topic
1 User(s) are reading this topic (1 Guests and 0 Anonymous Users)
0 Members:

 



- Lo-Fi Version Support form
Copyrights and abuse reports form
Time is now: 26th February 2024 - 09:35:29