Welcome Guest ( Log In | Register )

> Releases Upload / Добавление релизов

Добавить релиз тут / Click here to add release
Рекомендованные обменники / Recommended file shares

 
Reply to this topicStart new topic
> Cerebral Suppuration - Forensic Pathology: Death Through The Eyes Of The Medical Examiner (2024), Goregrind
post Feb 12 2024, 06:49:44
Post #1

Правь статус, ####!111
**************
Group: Металариец
Posts: 7,270
Releases: 6649
From: Одесса
On Forums: 15 years 8 months
Thanks: 77391 time(s)
Ukraine


(IMG:https://metalarea.org/images/audiocovers/2024_Feb/acov_tid392334_thumb.jpg)

*Artist: Cerebral Suppuration
*Album: Forensic Pathology: Death Through The Eyes Of The Medical Examiner
*Year: 2024
*Genre: Goregrind
*Country: Paraguay (IMG:https://metalarea.org/forum/style_images/flags/Paraguay.png)
*Format: mp3@CBR320kbps
*Size: 67MB

Tracklist:
1. Prelude: Introduction to Forensic Pathology 01:27
2. Autopsy Techniques: Rokitansky's Method (T-incision) 01:42
3. Autopsy Techniques: Mata's Method 01:28
4. Fetal Autopsy 01:21
5. Esophageal Atresia and Tracheoesophageal Fistula 01:05
6. A Single Orbital Cavity (Cyclopia) with Additional Proboscis in a Newborn with Trisomy 13 (Patau Syndrome) 02:01
7. Conservative Phenomena of the Corpse: Mummification and Adipocere 01:16
8. Head Trauma: Subdural Hematoma 01:40
9. Malignant Tumour Grown from Renal Parenchyma (Lymphatic Phlegm cover) 02:17
10. Interlude: Involuntary Post-mortem Reflex 01:25
11. Embryonal Rhabdomyosarcoma (Sarcoma Botryoides) 00:41
12. Post-mortem Ocular Phenomena: Sommer-Larcher Sclera Stain 01:24
13. Thanatochronodiagnosis: Determination of The Post-mortem Interval (P.M.I.) Through Forensic Entomology 02:25
14. Craniofacial and Limb Malformations in Tetraphocomelia-cleft Palate Syndrome (Roberts Syndrome -RBS-) 00:50
15. Hirschprung Disease (Congenital Megacolon) 01:02
16. Malignant Peripheral Nerve Sheath Tumour (MPNST) 01:51
17. Thanatopraxy: Delaying the Natural Decomposition of the Corpse Through Embalming 02:17
18. Recessive Enterological Illeo-meconial Mucoviscidosis (Lymphatic Phlegm cover) 01:47
******************************
Total playing time: 27:59



Extended info
Line - up:

Oscar - All instruments, Drum programming (Carcinosis, Mieloblastoma)
Oga - Vocals (Cancerous Social Thoughts, Carcinosis, Eruptive)

We don't know when our body may be in a cold morgue ready for an autopsy, so this album in its entirety is dedicated to Lymphatic Phlegm, masters of Pathological Goregrind, with such a characteristic and unique sound within the genre. Pathologically explicit since 1996!


Technical info
(IMG:https://metalarea.org/images/spectrogram/2024_Feb/b2eb15e052683b7441066635d26ac287.png)
Input File: 12. Post-mortem Ocular Phenomena Sommer-Larcher Sclera Stain.mp3
Channels : 2
Sample Rate : 48000
Precision : 16-bit
Duration : 00:01:25.01 = 4080528 samples ~ 6375.82 CDDA sectors
File Size : 3.50M
Bit Rate : 329k
Sample Encoding: MPEG audio (layer I, II or III)
Comments :
Title=Post-mortem Ocular Phenomena: Sommer-Larcher Sclera Stain
Artist=Cerebral Suppuration
Album=Forensic Pathology: Death Through The Eyes Of The Medical Examiner
Tracknumber=12
Year=2024
Genre=Goregrind



Register


Go to the top of the page
  Insert nick Quick quote
+Quote Post

Reply to this topicStart new topic
1 User(s) are reading this topic (1 Guests and 0 Anonymous Users)
0 Members:

 



- Lo-Fi Version Support form
Copyrights and abuse reports form
Time is now: 26th February 2024 - 09:48:29