Welcome Guest ( Log In | Register )

Объявления

* gmail.com упорно продолжает считать почту с нас "unsolicited" и отбивает в том числе и письма активации, поэтому просьба использовать альтернативные почтовые ящики.
------------
* gmail.com continues reject all mail from us as "unsolicited" (activation mails too) therefore please use alternate mail servers.
> Pestilength - Solar Clorex (2024), Black/Doom Metal (D7)
post Feb 15 2024, 15:09:11
Post #1

Serial Uploader
Group Icon
Group: V.I.P
Posts: 42,772
Releases: 40835
From: Lithuania
On Forums: 16 years 1 week
Thanks: 523832 time(s)
Lithuania


(IMG:https://metalarea.org/images/audiocovers/2024_Feb/acov_tid392501_thumb.jpg)

*Artist: Pestilength
*Album: Solar Clorex
*Year: 2024
*Genre: Black/Doom Metal
*Country: Spain (IMG:https://metalarea.org/forum/style_images/flags/Spain.png)
*Format: mp3@CBR320kbps
*Size: 87MB

Tracklist:
1. Intraexsanguination 01:24
2. Neerv 04:12
3. Occlusive 04:29
4. Enthronos Wormwomb 05:27
5. Baleful Profusion 02:05
6. Dilution Haep 04:43
7. Oxide Veils 03:12
8. Choirs Of None 04:13
9. Verbalist Aphonee 06:31
******************************
Total playing time: 36:16


Preview 2

(IMG:https://metalarea.org/images/youtube.png)

Technical info
(IMG:https://metalarea.org/images/spectrogram/2024_Feb/e47b1a1e248b56fa337d3b31924935fd.png)
Input File: 02 - Neerv.mp3
Channels : 2
Sample Rate : 44100
Precision : 16-bit
Duration : 00:04:12.00 = 11113200 samples = 18900 CDDA sectors
File Size : 10.5M
Bit Rate : 335k
Sample Encoding: MPEG audio (layer I, II or III)
Comments :
Title=Neerv
Artist=Pestilength
Album=Solar Clorex
Tracknumber=2
Year=2024-02-16
Genre=Metal
Discnumber=1



Register


Go to the top of the page
  Insert nick Quick quote
+Quote Post
 
Start new topic
Replies (1 - 7)
post Feb 17 2024, 19:59:10
Post #2

Common dweller of hell
**************
Group: Металариец
Posts: 5,440
Releases: 12
From: Dnipro
On Forums: 15 years 11 months
Thanks: 2205 time(s)
Ukraine


blackened death metal


Thanks:
Go to the top of the page
  Insert nick Quick quote
+Quote Post
post Feb 19 2024, 10:12:12
Post #3

кручу наждак
**************
Group: Металариец
Posts: 6,588
Releases: 111
From: Самара
On Forums: 14 years 1 month
Thanks: 5146 time(s)
Russian Federation


Жирный диссонансный дэт с переходом в дэт/дум. От блэка тут мало чего есть.


Thanks:
Go to the top of the page
  Insert nick Quick quote
+Quote Post
post Apr 16 2024, 08:29:14
Post #4

antithesis
**************
Group: Металариец
Posts: 4,183
Releases: 36
From: VRN
On Forums: 14 years 3 weeks
Thanks: 2720 time(s)
Russian Federation


reup pls
Go to the top of the page
  Insert nick Quick quote
+Quote Post
post Apr 16 2024, 09:28:44
Post #5

Два Литра
**
Group: Завсегдатай
Posts: 149
Releases: 0
On Forums: 4 years 6 months
Thanks: 192 time(s)
Russian Federation


ЦИТАТА(Razorbladeswaltz @ Apr 16 2024, 08:29:14) *
reup pls


from the web

Register


Go to the top of the page
  Insert nick Quick quote
+Quote Post
post May 2 2024, 20:44:15
Post #6

Full-of-Hate
**************
Group: Металариец
Posts: 5,784
Releases: 0
From: Moscow
On Forums: 14 years 11 months
Thanks: 7126 time(s)
Russian Federation


Какая же это все-таки уродливая и больная музыка. Мне понравилось.
Даже не знаю с кем они вызвали ассоциации, какие-то отдаленные аллюзии на Demilich, но с наметками навалить изподвыподверта авангарда / психодела.
Очень специфичный звук, ну и в целом крайне нездоровую уникальную ауру создать получилось. Есть очень залипательные моменты, есть моменты, когда ловишь себя на мысли, мол, что за чертовщина. Но увлекает. За 36 минут жилы тянет хорошечно.


Go to the top of the page
  Insert nick Quick quote
+Quote Post
post Jun 5 2024, 00:25:39
Post #7

Девять Литров
*********
Group: Металариец
Posts: 948
Releases: 17
From: Brasil - Sao Paulo
On Forums: 4 years 1 month
Thanks: 938 time(s)
Brazil


Eh! This is fucking nice!


Thanks:
(1) Occultas,
Go to the top of the page
  Insert nick Quick quote
+Quote Post
post Jun 11 2024, 10:48:29
Post #8

Group: Подсевший
Posts: 45
Releases: 0
On Forums: 1 week 3 days
Thanks: 5 time(s)
Unknown


(IMG:style_emoticons/default/m0114.gif)
Go to the top of the page
  Insert nick Quick quote
+Quote Post

Reply to this topicStart new topic
2 User(s) are reading this topic (2 Guests and 0 Anonymous Users)
0 Members:

 



- Lo-Fi Version Support form
Copyrights and abuse reports form
Time is now: 17th June 2024 - 23:46:08