Welcome Guest ( Log In | Register )

Объявления

* gmail.com упорно продолжает считать почту с нас "unsolicited" и отбивает в том числе и письма активации, поэтому просьба использовать альтернативные почтовые ящики.
------------
* gmail.com continues reject all mail from us as "unsolicited" (activation mails too) therefore please use alternate mail servers.
> Rails - Rails [ep] (2024), Blackened Death Metal/Hardcore
post Feb 17 2024, 19:08:29
Post #1

Правь статус, ####!111
**************
Group: Металариец
Posts: 7,721
Releases: 7059
From: Одесса
On Forums: 16 years 1 month
Thanks: 82355 time(s)
Ukraine


(IMG:https://metalarea.org/images/audiocovers/2024_Feb/acov_tid392600_thumb.jpg)

*Artist: Rails
*Album: Rails [ep]
*Year: 2024
*Genre: Blackened Death Metal/Hardcore
*Country: Australia (IMG:https://metalarea.org/forum/style_images/flags/Australia.png)
*Format: mp3@CBR320kbps
*Size: 56MB

Tracklist:
1. Procession 03:07
2. Nascent 03:47
3. Cut Ties 03:01
4. Leaving Song 04:46
5. Culprit 05:08
6. Algernon 04:03
******************************
Total playing time: 23:52



Technical info
(IMG:https://metalarea.org/images/spectrogram/2024_Feb/cc33ec1cfa8dfbde594525fe8244d391.png)
Input File: 05. CULPRIT.mp3
Channels : 2
Sample Rate : 48000
Precision : 16-bit
Duration : 00:05:08.88 = 14826384 samples ~ 23166.2 CDDA sectors
File Size : 12.4M
Bit Rate : 320k
Sample Encoding: MPEG audio (layer I, II or III)
Comments :
Title=CULPRIT
Artist=Rails
Album=Rails (EP)
Tracknumber=5
Year=2024
Genre=Blackened Death Metal | Hardcore



Register


Go to the top of the page
  Insert nick Quick quote
+Quote Post
 
Start new topic
Replies (1 - 1)
post May 15 2024, 09:10:16
Post #2

Правь статус, ####!111
**************
Group: Металариец
Posts: 2,876
Releases: 426
From: Bretagne
On Forums: 16 years 2 months
Thanks: 5383 time(s)
France


thanks, nice blackened sludge (IMG:style_emoticons/default/20.gif)
"name your price" on bandcamp
Go to the top of the page
  Insert nick Quick quote
+Quote Post

Reply to this topicStart new topic
1 User(s) are reading this topic (1 Guests and 0 Anonymous Users)
0 Members:

 



- Lo-Fi Version Support form
Copyrights and abuse reports form
Time is now: 23rd July 2024 - 06:28:19