Welcome Guest ( Log In | Register )

Объявления

* gmail.com упорно продолжает считать почту с нас "unsolicited" и отбивает в том числе и письма активации, поэтому просьба использовать альтернативные почтовые ящики.
------------
* gmail.com continues reject all mail from us as "unsolicited" (activation mails too) therefore please use alternate mail servers.
 
Reply to this topicStart new topic
> Hilning - Det Bortgl​ö​mda Hatet [demo] (2020), Black Metal
post Feb 18 2024, 02:47:56
Post #1

Правь статус, 616
**************
Group: Металариец
Posts: 10,835
Releases: 8823
From: 55°35’N 38°08’E
On Forums: 15 years 11 months
Thanks: 157078 time(s)
Russian Federation


(IMG:https://metalarea.org/images/audiocovers/2024_Feb/acov_tid392619_thumb.jpg)

*Artist: Hilning
*Album: Det Bortgl​ö​mda Hatet [demo]
*Year: 2020
*Genre: Black Metal
*Country: Sweden (IMG:https://metalarea.org/forum/style_images/flags/Sweden.png)
*Format: mp3@CBR320kbps
*Size: 41MB

Tracklist:
1. Lunariska drömmar 04:34
2. Det bortglömda hatet 04:15
3. Låt yggdrasil brinna 04:09
4. Självspillan (Nås Transylvania) 04:40
******************************
Total playing time: 17:38



Technical info
(IMG:https://metalarea.org/images/spectrogram/2024_Feb/1682f7fc9d9a8f31e4c24ce704846a97.png)
Input File: 01 Lunariska Drömmar.mp3
Channels : 2
Sample Rate : 44100
Precision : 16-bit
Duration : 00:04:34.80 = 12118680 samples = 20610 CDDA sectors
File Size : 11.1M
Bit Rate : 323k
Sample Encoding: MPEG audio (layer I, II or III)
Comments :
Title=Lunariska Drömmar
Artist=Hilning
Album=Det Bortgl​ö​mda Hatet
Tracknumber=1/4
Year=2020
Genre=Black Metal
Discnumber=1/1



Register


Go to the top of the page
  Insert nick Quick quote
+Quote Post

Reply to this topicStart new topic
1 User(s) are reading this topic (1 Guests and 0 Anonymous Users)
0 Members:

 



- Lo-Fi Version Support form
Copyrights and abuse reports form
Time is now: 20th June 2024 - 10:04:20