Welcome Guest ( Log In | Register )

Объявления

* gmail.com упорно продолжает считать почту с нас "unsolicited" и отбивает в том числе и письма активации, поэтому просьба использовать альтернативные почтовые ящики.
------------
* gmail.com continues reject all mail from us as "unsolicited" (activation mails too) therefore please use alternate mail servers.
 
Reply to this topicStart new topic
> E.B.D.B. - Existence For Dummies: Chapter III (2023), Brutal Death Metal (D4)
post Feb 18 2024, 04:40:10
Post #1

Правь статус, ####!111
**************
Group: Металариец
Posts: 9,122
Releases: 7356
On Forums: 13 years 7 months
Thanks: 129503 time(s)
Italy


(IMG:https://metalarea.org/images/audiocovers/2024_Feb/acov_tid392620_thumb.jpg)

*Artist: E.B.D.B.
*Album: Existence For Dummies: Chapter III
*Year: 2023
*Genre: Brutal Death Metal
*Country: Belgium (IMG:https://metalarea.org/forum/style_images/flags/Belgium.png)
*Format: mp3@CBR320kbps
*Size: 75MB

Tracklist:
1.Ridiculum Vitae Est Ate Dixpix Tonet 02:28
2.When I Touch Myself (An Angel Dies) 02:25
3.All Cysts Go! 03:15
4.Post/Hate 02:44
5.Meat Sweats 03:50
6.Once Upon A Stake In The West 02:53
7.Defying The Laws Of Newton 03:10
8.You're Shit At Dying 03:35
9.The Pilgrimage Of Decomposed Ella 05:59
******************************
Total playing time: 30:19



Technical info
(IMG:https://metalarea.org/images/spectrogram/2024_Feb/fa8ed2c7dd3a11f9b18e8d637ba37a29.png)
Input File: 2.When I Touch Myself (An Angel Dies).mp3
Channels : 2
Sample Rate : 44100
Precision : 16-bit
Duration : 00:02:25.75 = 6427487 samples = 10931.1 CDDA sectors
File Size : 8.07M
Bit Rate : 443k
Sample Encoding: MPEG audio (layer I, II or III)
Comments :
Title=When I Touch Myself (An Angel Dies)
Artist=E.B.D.B.
Album=Existence For Dummies: Chapter III
Tracknumber=2/9
Year=2023
Discnumber=1/1



Register


Go to the top of the page
  Insert nick Quick quote
+Quote Post

Reply to this topicStart new topic
1 User(s) are reading this topic (1 Guests and 0 Anonymous Users)
0 Members:

 



- Lo-Fi Version Support form
Copyrights and abuse reports form
Time is now: 20th June 2024 - 10:53:50