Welcome Guest ( Log In | Register )

Объявления

* gmail.com упорно продолжает считать почту с нас "unsolicited" и отбивает в том числе и письма активации, поэтому просьба использовать альтернативные почтовые ящики.
------------
* gmail.com continues reject all mail from us as "unsolicited" (activation mails too) therefore please use alternate mail servers.
> Liminal - Slow Dance [ep] (2023), Metalcore/Deathcore
post Feb 18 2024, 11:59:53
Post #1

Семь Литров
*******
Group: Металариец
Posts: 799
Releases: 77
From: Суворов
On Forums: 6 years 4 months
Thanks: 752 time(s)
Russian Federation


(IMG:https://metalarea.org/images/audiocovers/2024_Feb/acov_tid392629_thumb.jpg)

*Artist: Liminal
*Album: Slow Dance [ep]
*Year: 2023
*Genre: Metalcore/Deathcore
*Country: United States (IMG:https://metalarea.org/forum/style_images/flags/United%20States.png)
*Format: mp3@CBR320kbps
*Size: 37MB

Tracklist:
01. Condition
02. God's Guillotine
03. Burn
04. Born2Hate
******************************
Total playing time: 15:54


(IMG:https://metalarea.org/images/youtube.png)

Extended info
Debut EP release by New Jersey band Liminal
released July 14, 2023


Technical info
(IMG:https://metalarea.org/images/spectrogram/2024_Feb/42e6ccd57402d6185b036fa80e01af9b.png)
Input File: 01. Condition.mp3
Channels : 2
Sample Rate : 44100
Precision : 16-bit
Duration : 00:04:25.11 = 11691263 samples = 19883.1 CDDA sectors
File Size : 10.7M
Bit Rate : 321k
Sample Encoding: MPEG audio (layer I, II or III)
Comments :
Title=Condition
Artist=Liminal
Album=Slow Dance
Tracknumber=01
Year=2023
Genre=Metalcore/Deathcore



Register


Go to the top of the page
  Insert nick Quick quote
+Quote Post
 
Start new topic
Replies (1 - 1)
post Feb 18 2024, 16:56:05
Post #2

Литр
*
Group: Подсевший
Posts: 65
Releases: 0
From: Ukraine
On Forums: 1 year 6 months
Thanks: 7 time(s)
Ukraine


Это было довольно неплохо. По крайней мере, стоит проверить. металкор/ дэткор не был моим коньком уже более десяти лет, хотя я все еще иногда заглядываю в такие группы, как DarkoUS.
Go to the top of the page
  Insert nick Quick quote
+Quote Post

Reply to this topicStart new topic
1 User(s) are reading this topic (1 Guests and 0 Anonymous Users)
0 Members:

 



- Lo-Fi Version Support form
Copyrights and abuse reports form
Time is now: 14th June 2024 - 10:43:26