Welcome Guest ( Log In | Register )

Объявления

* gmail.com упорно продолжает считать почту с нас "unsolicited" и отбивает в том числе и письма активации, поэтому просьба использовать альтернативные почтовые ящики.
------------
* gmail.com continues reject all mail from us as "unsolicited" (activation mails too) therefore please use alternate mail servers.
> Noosphera - Más Allá Del Sol (2018), Melodic Death Metal/Trance
post Feb 20 2024, 05:59:24
Post #1

Правь статус, ####!111
**************
Group: Металариец
Posts: 2,760
Releases: 54
From: Nakhodka
On Forums: 13 years 11 months
Thanks: 2816 time(s)
Russian Federation


(IMG:https://metalarea.org/images/audiocovers/2024_Feb/acov_tid392710_thumb.jpg)

*Artist: Noosphera
*Album: Más Allá Del Sol
*Year: 2018
*Genre: Melodic Death Metal/Trance
*Country: Mexico (IMG:https://metalarea.org/forum/style_images/flags/Mexico.png)
*Format: mp3@CBR320kbps
*Size: 87MB

Tracklist:
1. Es tiempo 02:22
2. Reflejos 04:02
3. Más allá del sol 04:09
4. Colapso gravitacional 04:02
5. Revolución: El plano eterno 05:20
6. Fragmentación: El abismo interno 04:07
7. Noosfera 04:20
8. Ecos de la vida 03:17
9. Lo último de nosotros 05:30
******************************
Total playing time: 37:09

Technical info
(IMG:https://metalarea.org/images/spectrogram/2024_Feb/ba5e2b875f2356d765cb11dc5f31c2e0.png)
Input File: 2. Reflejos.mp3
Channels : 2
Sample Rate : 44100
Precision : 16-bit
Duration : 00:04:02.00 = 10672200 samples = 18150 CDDA sectors
File Size : 9.91M
Bit Rate : 328k
Sample Encoding: MPEG audio (layer I, II or III)
Comments :
Title=Reflejos
Artist=Noosphera
Album=Más Allá Del Sol
Tracknumber=2/9
Year=2018-06-02
Genre=Melodic Death Metal/Trance



Register


Go to the top of the page
  Insert nick Quick quote
+Quote Post
 
Start new topic
Replies (1 - 3)
post Feb 20 2024, 14:02:16
Post #2

_ - = # Thrashogolic # = - _ ... а давайте поржём все вместе
**************
Group: Металариец
Posts: 22,473
Releases: 4444
From: 404
On Forums: 13 years 11 months
Thanks: 29148 time(s)
Ukraine


Транс, в смысле, это электроника какая?
Go to the top of the page
  Insert nick Quick quote
+Quote Post
post Feb 20 2024, 15:23:43
Post #3

Правь статус, ####!111
**************
Group: Металариец
Posts: 2,760
Releases: 54
From: Nakhodka
On Forums: 13 years 11 months
Thanks: 2816 time(s)
Russian Federation


ЦИТАТА(Genuine Thrashiac @ 20th February 2024 - 23:02:16) *
Транс, в смысле, это электроника какая?

Да. В целом, из ближайших аналогов - Blood Stain Child.


Thanks:
Go to the top of the page
  Insert nick Quick quote
+Quote Post
post Apr 23 2024, 17:45:59
Post #4

मृत्यु
**************
Group: Металариец
Posts: 3,596
Releases: 24
On Forums: 13 years 10 months
Thanks: 2346 time(s)
Antarctica


Go to the top of the page
  Insert nick Quick quote
+Quote Post

Reply to this topicStart new topic
2 User(s) are reading this topic (2 Guests and 0 Anonymous Users)
0 Members:

 



- Lo-Fi Version Support form
Copyrights and abuse reports form
Time is now: 27th May 2024 - 23:37:55