Welcome Guest ( Log In | Register )

> И неформату есть предел.

Рэп/хип-хоп/шансон/поп удаляются. Для них есть свои порталы.

 
Reply to this topicStart new topic
> Jesu - Hard To Reach [ep] (2024), Shoegaze/Industrial (D)
post Feb 20 2024, 19:40:55
Post #1

Мегаманьяк
***********
Group: Металариец
Posts: 1,876
Releases: 104
From: Санкт-Петербург
On Forums: 17 years 10 months
Thanks: 5191 time(s)
Russian Federation


(IMG:https://metalarea.org/images/audiocovers/2024_Feb/acov_tid392738_thumb.jpg)

*Artist: Jesu
*Album: Hard To Reach [ep]
*Year: 2024
*Genre: Shoegaze/Industrial
*Country: United Kingdom (IMG:https://metalarea.org/forum/style_images/flags/United%20Kingdom.png)
*Format: mp3@CBR320kbps
*Size: 104MB

Tracklist:
01. Hard To Reach (2024 remaster) 13:44
02. The Stars That Hang Above You (2024 remaster) 07:36
03. When Living Was Ours 04:51
04. Didn't Want To Wake Up 07:46
05. Hard To Reach (alternative version) 10:29
******************************
Total playing time: 44:25



Technical info
(IMG:https://metalarea.org/images/spectrogram/2024_Feb/bf7de9eea861e9b6eecb70b60539da5d.png)
Input File: 02 - The Stars That Hang Above You (2024 remaster).mp3
Channels : 2
Sample Rate : 44100
Precision : 16-bit
Duration : 00:07:36.10 = 20114010 samples = 34207.5 CDDA sectors
File Size : 18.2M
Bit Rate : 320k
Sample Encoding: MPEG audio (layer I, II or III)
Comments :
Title=The Stars That Hang Above You (2024 remaster)
Artist=Jesu
Album=Hard To Reach (EP)
Tracknumber=02
Year=2024
Genre=Shoegaze/Industrial



Register


Go to the top of the page
  Insert nick Quick quote
+Quote Post

Reply to this topicStart new topic
1 User(s) are reading this topic (1 Guests and 0 Anonymous Users)
0 Members:

 



- Lo-Fi Version Support form
Copyrights and abuse reports form
Time is now: 16th April 2024 - 09:56:12