Welcome Guest ( Log In | Register )

Объявления

* gmail.com упорно продолжает считать почту с нас "unsolicited" и отбивает в том числе и письма активации, поэтому просьба использовать альтернативные почтовые ящики.
------------
* gmail.com continues reject all mail from us as "unsolicited" (activation mails too) therefore please use alternate mail servers.
> Vincent Crowley - Anthology Of Horror (2024), Death/Doom/Black Metal
post Feb 22 2024, 16:45:04
Post #1

Serial Uploader
Group Icon
Group: V.I.P
Posts: 42,638
Releases: 40702
From: Lithuania
On Forums: 15 years 11 months
Thanks: 521654 time(s)
Lithuania


(IMG:https://metalarea.org/images/audiocovers/2024_Feb/acov_tid392863_thumb.jpg)

*Artist: Vincent Crowley
*Album: Anthology Of Horror
*Year: 2024
*Genre: Death/Doom/Black Metal
*Country: United States (IMG:https://metalarea.org/forum/style_images/flags/United%20States.png)
*Format: mp3@CBR320kbps
*Size: 105MB

Tracklist:
1. Intro VI VI VI 00:48
2. Amityville's Horror 05:46
3. That Which Lurks Below The Sea 05:42
4. Under The Hanging Tree 06:00
5. Nowhere To Hyde 06:26
6. Blood Moon Lycanthropy 06:00
7. Gods Of Crimson Cullings 04:15
8. Coupe De Poudre 05:08
9. Madame Laveau (Voodoo Queen) 05:19
******************************
Total playing time: 45:24


Preview 2

(IMG:https://metalarea.org/images/youtube.png)

Technical info
(IMG:https://metalarea.org/images/spectrogram/2024_Feb/64bcb55f88b92de7552e61b706c5c1fd.png)
Input File: 02. Amityville\'s Horror.mp3
Channels : 2
Sample Rate : 44100
Precision : 16-bit
Duration : 00:05:46.27 = 15270595 samples = 25970.4 CDDA sectors
File Size : 13.9M
Bit Rate : 322k
Sample Encoding: MPEG audio (layer I, II or III)
Comments :
Title=Amityville's Horror
Artist=Vincent Crowley
Album=Anthology of Horror
Tracknumber=2
Year=2024
Genre=Death Metal, Black Metal, Horror Metal



Register


Go to the top of the page
  Insert nick Quick quote
+Quote Post
 
Start new topic
Replies (1 - 5)
post Feb 23 2024, 12:21:42
Post #2

Шесть Литров
******
Group: Металариец
Posts: 551
Releases: 0
From: Град Московский
On Forums: 16 years 4 months
Thanks: 154 time(s)
Russian Federation


Отлично!!!!


Thanks:
(1) Occultas,
Go to the top of the page
  Insert nick Quick quote
+Quote Post
post Feb 25 2024, 20:57:52
Post #3

Добрейшей души Мегаманьяк
**************
Group: Металариец
Posts: 2,350
Releases: 0
From: Bashkortostan, Таптыҡ
On Forums: 16 years 3 months
Thanks: 1124 time(s)
Russian Federation


Всё ж не понимаю почему он закрыл ACHERON - ведь это тоже самое. А так да - хорошее музло


Thanks:
Go to the top of the page
  Insert nick Quick quote
+Quote Post
post Feb 29 2024, 14:20:01
Post #4

кручу наждак
**************
Group: Металариец
Posts: 6,560
Releases: 111
From: Самара
On Forums: 14 years 2 weeks
Thanks: 5115 time(s)
Russian Federation


ЦИТАТА(asog @ Feb 25 2024, 21:57:52) *
Всё ж не понимаю почему он закрыл ACHERON - ведь это тоже самое. А так да - хорошее музло

Acheron все же поубойней был. Здесь почти чистый дум, ну или дэт/дум, если учитывать вокал.
Go to the top of the page
  Insert nick Quick quote
+Quote Post
post Mar 1 2024, 20:59:38
Post #5

Добрейшей души Мегаманьяк
**************
Group: Металариец
Posts: 2,350
Releases: 0
From: Bashkortostan, Таптыҡ
On Forums: 16 years 3 months
Thanks: 1124 time(s)
Russian Federation


ЦИТАТА(judaz @ Feb 29 2024, 16:20:01) *
Acheron все же поубойней был. Здесь почти чистый дум, ну или дэт/дум, если учитывать вокал.

Идеи ходы мелодика - всё тоже. Многие группы изменились до неузнаваемости по сравнению в прошлым творчеством, а тут смена названия и почти тоже самое - как бы логическое продолжение прошлого творчества. Ну да ладно - хозяин - барин. ...переслушиваю потихонечку наследие ACHERON.


Thanks:
(1) Occultas,
Go to the top of the page
  Insert nick Quick quote
+Quote Post
post Mar 14 2024, 21:30:09
Post #6

Литр
*
Group: Подсевший
Posts: 90
Releases: 0
On Forums: 16 years 11 months
Thanks: 2 time(s)
Afghanistan


flac possible? thanks
Go to the top of the page
  Insert nick Quick quote
+Quote Post

Reply to this topicStart new topic
2 User(s) are reading this topic (2 Guests and 0 Anonymous Users)
0 Members:

 



- Lo-Fi Version Support form
Copyrights and abuse reports form
Time is now: 30th May 2024 - 23:18:32