Welcome Guest ( Log In | Register )

Объявления

* gmail.com упорно продолжает считать почту с нас "unsolicited" и отбивает в том числе и письма активации, поэтому просьба использовать альтернативные почтовые ящики.
------------
* gmail.com continues reject all mail from us as "unsolicited" (activation mails too) therefore please use alternate mail servers.
> Ara - Blutroter Mond (2024), Black Metal (D6)
post Feb 24 2024, 05:44:53
Post #1

Правь статус, ####!111
**************
Group: Металариец
Posts: 35,938
Releases: 26782
From: Г.Харьков
On Forums: 12 years 2 weeks
Thanks: 580874 time(s)
Ukraine


(IMG:https://metalarea.org/images/audiocovers/2024_Feb/acov_tid392946_thumb.jpg)

*Artist: Ara
*Album: Blutroter Mond
*Year: 2024
*Genre: Black Metal
*Country: Austria (IMG:https://metalarea.org/forum/style_images/flags/Austria.png)
*Format: mp3@CBR320kbps
*Size: 76MB

Tracklist:
1. Zur Hölle mich 04:16
2. Traum 02:32
3. Lucia 05:12
4. Leuchtende Sterne 03:48
5. Mit pochendem Herz 04:46
6. Uns're Zeit ist um 04:54
7. Sommerwind 02:54
8. Seltsames Ding 05:20
******************************
Total playing time: 33:42



Extended info
Schnee Everything


Technical info
(IMG:https://metalarea.org/images/spectrogram/2024_Feb/f087cb285c4042746d496c5148bcbb23.png)
Input File: 08 - Seltsames Ding.mp3
Channels : 2
Sample Rate : 44100
Precision : 16-bit
Duration : 00:05:20.10 = 14116366 samples = 24007.4 CDDA sectors
File Size : 12.8M
Bit Rate : 320k
Sample Encoding: MPEG audio (layer I, II or III)
Comments :
Title=Seltsames Ding
Artist=Ara
Album=Blutroter Mond
Tracknumber=8
Year=2024



Register


Go to the top of the page
  Insert nick Quick quote
+Quote Post
 
Start new topic
Replies (1 - 2)
post Feb 25 2024, 13:28:16
Post #2

Common dweller of hell
**************
Group: Металариец
Posts: 5,393
Releases: 12
From: Dnipro
On Forums: 15 years 10 months
Thanks: 2193 time(s)
Ukraine


Судя по названию, то на обложке славный город Ереван и гора Арарат (IMG:style_emoticons/default/15.gif)
Go to the top of the page
  Insert nick Quick quote
+Quote Post
post Feb 25 2024, 13:29:58
Post #3

Ёлд ХеллоВяйне
Group Icon
Group: V.I.P
Posts: 34,828
Releases: 143
From: Питер
On Forums: 17 years 6 months
Thanks: 21974 time(s)
Russian Federation


QUOTE(isvili @ Feb 25 2024, 15:28:16) *
Судя по названию, то на обложке славный город Ереван и гора Арарат (IMG:style_emoticons/default/15.gif)


Зашёл в тему именно за этой искромётной шуткой.


Thanks:
Go to the top of the page
  Insert nick Quick quote
+Quote Post

Reply to this topicStart new topic
1 User(s) are reading this topic (1 Guests and 0 Anonymous Users)
0 Members:

 



- Lo-Fi Version Support form
Copyrights and abuse reports form
Time is now: 24th May 2024 - 21:15:21