Welcome Guest ( Log In | Register )

> И неформату есть предел.

Рэп/хип-хоп/шансон/поп удаляются. Для них есть свои порталы.

> Кирха - Thule (2023), Medieval Black Metal
post Feb 24 2024, 08:51:57
Post #1

Правь статус, ####!111
**************
Group: Металариец
Posts: 55,761
Releases: 1187
On Forums: 14 years 10 months
Thanks: 54478 time(s)
Russian Federation


(IMG:https://metalarea.org/images/audiocovers/2024_Feb/acov_tid392957_thumb.jpg)

*Artist: Кирха
*Album: Thule
*Year: 2023
*Genre: Medieval Black Metal
*Country: Russian Federation (IMG:https://metalarea.org/forum/style_images/flags/Russian%20Federation.png)
*Format: mp3@CBR320kbps
*Size: 67MB

Tracklist:
1. Jасень
2. Thule
3. Старого Лєса Покој
4. Жрава
5. Sieben Tage Lang
6. Иде Војак
7. Утгард
8. Ночлег
******************************
Total playing time: 29:24

Technical info
(IMG:https://metalarea.org/images/spectrogram/2024_Feb/64c7fe279b663c66358fff19004918e4.png)
Input File: 02 Thule.mp3
Channels : 2
Sample Rate : 44100
Precision : 16-bit
Duration : 00:03:35.03 = 9482735 samples = 16127.1 CDDA sectors
File Size : 8.60M
Bit Rate : 320k
Sample Encoding: MPEG audio (layer I, II or III)
Comments :
Title=Thule
Artist=Кирха
Album=Thule
Tracknumber=2
Year=2023
Genre=Medieval Black Synth



Register


Go to the top of the page
  Insert nick Quick quote
+Quote Post
 
Start new topic
Replies (1 - 8)
post Feb 24 2024, 12:26:38
Post #2

Мегаманьяк
***********
Group: Металариец
Posts: 1,878
Releases: 25
From: Москва
On Forums: 16 years 1 week
Thanks: 1314 time(s)
Antarctica


Это неформат. Слушать надо релизы [блин]ь, которые заливаешь.
Go to the top of the page
  Insert nick Quick quote
+Quote Post
post Feb 24 2024, 12:46:53
Post #3

Forever Underground
**************
Group: Металариец
Posts: 12,072
Releases: 0
On Forums: 9 years 1 week
Thanks: 19503 time(s)
Unknown


Go to the top of the page
  Insert nick Quick quote
+Quote Post
post Feb 25 2024, 09:49:11
Post #4

Четыре Литра
****
Group: Металариец
Posts: 363
Releases: 0
On Forums: 14 years 4 months
Thanks: 134 time(s)
Russian Federation


Хмм... перепели Sieben Tage Lang, но не понял на каком языке
Go to the top of the page
  Insert nick Quick quote
+Quote Post
post Feb 25 2024, 10:37:40
Post #5

####!111
**************
Group: Металариец
Posts: 4,760
Releases: 146
From: The Mountain Of DOOM
On Forums: 16 years 6 months
Thanks: 7011 time(s)
Russian Federation


По спектрограмме видно, что синтезаторное всё
Go to the top of the page
  Insert nick Quick quote
+Quote Post
post Feb 25 2024, 10:53:05
Post #6
BAN
Banned till
May 9 2024, 18:47:08



ЦИТАТА(Fryz @ 24th February 2024 - 14:26:38) *
Слушать надо релизы [блин]ь, которые заливаешь.

Для 80-го это невыполнимая задача.


Thanks:
Go to the top of the page
  Insert nick Quick quote
+Quote Post
post Feb 25 2024, 11:15:10
Post #7

Мегаманьяк
***********
Group: Металариец
Posts: 1,878
Releases: 25
From: Москва
On Forums: 16 years 1 week
Thanks: 1314 time(s)
Antarctica


ЦИТАТА(6666666 @ Feb 25 2024, 13:53:05) *
Для 80-го это невыполнимая задача.

Ну уж отщёлкать по 20 секунд трека можно. Если ты не серийный заливщик, то как без этого.
Go to the top of the page
  Insert nick Quick quote
+Quote Post
post Feb 25 2024, 12:02:19
Post #8

Прог-козёл (с)
**************
Group: Металариец
Posts: 16,481
Releases: 0
From: Киев
On Forums: 16 years 2 months
Thanks: 10526 time(s)
Unknown


И эта тоже невыполнимая (IMG:style_emoticons/default/1488.gif)
Go to the top of the page
  Insert nick Quick quote
+Quote Post
post Feb 25 2024, 12:20:02
Post #9

मृत्यु
**************
Group: Металариец
Posts: 3,516
Releases: 24
On Forums: 13 years 8 months
Thanks: 2311 time(s)
Antarctica


ЦИТАТА(Fryz @ Feb 24 2024, 16:26:38) *
Это неформат. Слушать надо релизы [блин]ь, которые заливаешь.

Он обложки слушает. (IMG:style_emoticons/default/21.gif)


Go to the top of the page
  Insert nick Quick quote
+Quote Post

Reply to this topicStart new topic
1 User(s) are reading this topic (1 Guests and 0 Anonymous Users)
0 Members:

 



- Lo-Fi Version Support form
Copyrights and abuse reports form
Time is now: 16th April 2024 - 08:22:58