Welcome Guest ( Log In | Register )

> И неформату есть предел.

Рэп/хип-хоп/шансон/поп удаляются. Для них есть свои порталы.

 
Reply to this topicStart new topic
> Guiltless - Thorns [ep] (2024), Post Metal/Post-Hardcore/Noise/Sludge
post Feb 24 2024, 09:13:14
Post #1

Мегаманьяк
***********
Group: Металариец
Posts: 1,575
Releases: 129
On Forums: 10 years 6 months
Thanks: 4095 time(s)
Unknown


(IMG:https://metalarea.org/images/audiocovers/2024_Feb/acov_tid392958_thumb.jpg)

*Artist: Guiltless
*Album: Thorns [ep]
*Year: 2024
*Genre: Post Metal/Post-Hardcore/Noise/Sludge
*Country: United States (IMG:https://metalarea.org/forum/style_images/flags/United%20States.png)
*Format: mp3@CBR320kbps
*Size: 56MB

Tracklist:
01. Devour / Collide 06:23
02. All We Destroy 05:34
03. Dead Eye 05:35
04. In Radiant Glow 06:25
******************************
Total playing time: 23:57

Extended info


Technical info
(IMG:https://metalarea.org/images/spectrogram/2024_Feb/9a291eabdca3ca99226ef214dcab4956.png)
Input File: 02-guiltless-all_we_destroy.mp3
Channels : 2
Sample Rate : 44100
Precision : 16-bit
Duration : 00:05:34.57 = 14754581 samples = 25092.8 CDDA sectors
File Size : 13.7M
Bit Rate : 326k
Sample Encoding: MPEG audio (layer I, II or III)
Comments :
Title=All We Destroy
Artist=Guiltless
Album=Thorns
Tracknumber=2/4
Year=2024
Genre=Metal



Register


Thanks:
Go to the top of the page
  Insert nick Quick quote
+Quote Post

Reply to this topicStart new topic
1 User(s) are reading this topic (1 Guests and 0 Anonymous Users)
0 Members:

 



- Lo-Fi Version Support form
Copyrights and abuse reports form
Time is now: 16th April 2024 - 08:43:59