Welcome Guest ( Log In | Register )

Объявления

* gmail.com упорно продолжает считать почту с нас "unsolicited" и отбивает в том числе и письма активации, поэтому просьба использовать альтернативные почтовые ящики.
------------
* gmail.com continues reject all mail from us as "unsolicited" (activation mails too) therefore please use alternate mail servers.

> И неформату есть предел.

Рэп/хип-хоп/шансон/поп удаляются. Для них есть свои порталы.

 
Reply to this topicStart new topic
> Neon Odin - Allfather (2023), Synthwave/Nordic Folk
post Feb 29 2024, 17:00:18
Post #1

Мегаманьяк
***********
Group: Металариец
Posts: 1,890
Releases: 26
From: Москва
On Forums: 16 years 1 month
Thanks: 1343 time(s)
Antarctica


(IMG:https://metalarea.org/images/audiocovers/2024_Feb/acov_tid393228_thumb.jpg)

*Artist: Neon Odin
*Album: Allfather
*Year: 2023
*Genre: Synthwave/Nordic Folk
*Country: Hungary (IMG:https://metalarea.org/forum/style_images/flags/Hungary.png)
*Format: mp3@CBR320kbps
*Size: 84MB

Tracklist:
1. Ravens 02:58
2. Wield The Hammer 05:01
3. Giantess 05:31
4. 9 Days And Nights 03:08
5. March Of The Jǫtnar 05:32
6. Nordavind 05:24
7. Allfather 04:27
8. Váli's Light 03:22
******************************
Total playing time: 35:23



Extended info
This is a norsewave side project of vvilderness.

Прекрасный альбом и отличный проект в целом. Synthwave таит в себе поистине широчайшие возможности для развития в любом направлении.


Technical info
(IMG:https://metalarea.org/images/spectrogram/2024_Feb/5602118e7f8d5a2361f8269a04783367.png)
Input File: 03 - Giantess.mp3
Channels : 2
Sample Rate : 44100
Precision : 16-bit
Duration : 00:05:31.67 = 14626735 samples = 24875.4 CDDA sectors
File Size : 13.3M
Bit Rate : 321k
Sample Encoding: MPEG audio (layer I, II or III)
Comments :
Title=Giantess
Artist=Neon Odin
Album=Allfather
Tracknumber=03/08
Year=2023
Genre=Synthwave/Neofolk



Register


Go to the top of the page
  Insert nick Quick quote
+Quote Post

Reply to this topicStart new topic
2 User(s) are reading this topic (2 Guests and 0 Anonymous Users)
0 Members:

 



- Lo-Fi Version Support form
Copyrights and abuse reports form
Time is now: 26th May 2024 - 09:19:35