Welcome Guest ( Log In | Register )

Объявления

* gmail.com упорно продолжает считать почту с нас "unsolicited" и отбивает в том числе и письма активации, поэтому просьба использовать альтернативные почтовые ящики.
------------
* gmail.com continues reject all mail from us as "unsolicited" (activation mails too) therefore please use alternate mail servers.
> Clarion Void - Failure In Repetition (2024), Sludge/Black/Death Metal
post Feb 29 2024, 17:37:57
Post #1

Serial Uploader
Group Icon
Group: V.I.P
Posts: 42,989
Releases: 41047
From: Lithuania
On Forums: 16 years 1 month
Thanks: 527711 time(s)
Lithuania


(IMG:https://metalarea.org/images/audiocovers/2024_Feb/acov_tid393232_thumb.jpg)

*Artist: Clarion Void
*Album: Failure In Repetition
*Year: 2024
*Genre: Sludge/Black/Death Metal
*Country: United States (IMG:https://metalarea.org/forum/style_images/flags/United%20States.png)
*Format: mp3@CBR320kbps
*Size: 74MB

Tracklist:
1. Repetition I 00:58
2. Through Chaos We Succeed 03:10
3. Sisyphus Wept 04:29
4. This Is The Water 04:36
5. Lulu's Interlude 02:47
6. Repetition II 00:52
7. The Bottom 04:19
8. Repetition III 00:28
9. The Top 04:17
10. Rolling Boulder 05:19
******************************
Total playing time: 31:15


Preview 2

(IMG:https://metalarea.org/images/youtube.png)

Technical info
(IMG:https://metalarea.org/images/spectrogram/2024_Feb/3260859e5debd29fab0fb93c0af51c37.png)
Input File: 02 - Through Chaos We Succeed.mp3
Channels : 2
Sample Rate : 44100
Precision : 16-bit
Duration : 00:03:10.00 = 8379000 samples = 14250 CDDA sectors
File Size : 7.94M
Bit Rate : 334k
Sample Encoding: MPEG audio (layer I, II or III)
Comments :
Title=Through Chaos We Succeed
Artist=Clarion Void
Album=Failure in Repetition
Tracknumber=2
Year=2024-03-01
Genre=Alternative/Indie Rock/Metal
Discnumber=1



Register


Go to the top of the page
  Insert nick Quick quote
+Quote Post
 
Start new topic
Replies (1 - 5)
post Apr 20 2024, 12:20:45
Post #2

Пять Литров
*****
Group: Металариец
Posts: 438
Releases: 0
On Forums: 6 years 10 months
Thanks: 28 time(s)
United Nations


cam someone please reup?
Go to the top of the page
  Insert nick Quick quote
+Quote Post
post Apr 23 2024, 19:39:16    Сейчас играет: Veligrad - Do Pekla A Zpět (Intro)
Post #3

antithesis
**************
Group: Металариец
Posts: 4,225
Releases: 36
From: VRN
On Forums: 14 years 2 months
Thanks: 2739 time(s)
Russian Federation


ЦИТАТА(Purestenchkvlt @ Apr 20 2024, 16:20:45) *
cam someone please reup?

+1
Go to the top of the page
  Insert nick Quick quote
+Quote Post
post Apr 23 2024, 20:00:16
Post #4

Два Литра
**
Group: Завсегдатай
Posts: 179
Releases: 0
On Forums: 4 years 7 months
Thanks: 241 time(s)
Russian Federation


from web

Register


Go to the top of the page
  Insert nick Quick quote
+Quote Post
post May 5 2024, 04:31:06
Post #5

кручу наждак
**************
Group: Металариец
Posts: 6,633
Releases: 111
From: Самара
On Forums: 14 years 2 months
Thanks: 5176 time(s)
Russian Federation


Неплохо, жырно.
Go to the top of the page
  Insert nick Quick quote
+Quote Post
post May 8 2024, 19:56:36
Post #6

Русский
********
Group: Металариец
Posts: 839
Releases: 0
From: Москва
On Forums: 17 years 10 months
Thanks: 265 time(s)
Russian Federation


FLAC

Register


Thanks:
Go to the top of the page
  Insert nick Quick quote
+Quote Post

Reply to this topicStart new topic
2 User(s) are reading this topic (2 Guests and 0 Anonymous Users)
0 Members:

 



- Lo-Fi Version Support form
Copyrights and abuse reports form
Time is now: 23rd July 2024 - 22:42:09