Welcome Guest ( Log In | Register )

Объявления

* gmail.com упорно продолжает считать почту с нас "unsolicited" и отбивает в том числе и письма активации, поэтому просьба использовать альтернативные почтовые ящики.
------------
* gmail.com continues reject all mail from us as "unsolicited" (activation mails too) therefore please use alternate mail servers.
> Unholyscent - Endless Torment [ep] (2024), Black/Death Metal
post Mar 1 2024, 08:04:11
Post #1

Правь статус, ####!111
**************
Group: Металариец
Posts: 9,143
Releases: 7378
On Forums: 13 years 7 months
Thanks: 129917 time(s)
Italy


(IMG:https://metalarea.org/images/audiocovers/2024_Mar/acov_tid393259_thumb.jpg)

*Artist: Unholyscent
*Album: Endless Torment [ep]
*Year: 2024
*Genre: Black/Death Metal
*Country: Italy (IMG:https://metalarea.org/forum/style_images/flags/Italy.png)
*Format: mp3@CBR320kbps
*Size: 36MB

Tracklist:
01.Carnage Unleashed 03:47
02.Sacrilege's Embrace 02:16
03.Eternal Darkness 04:08
04.Malevolent Rapture 02:15
05.Tortured Existence 02:47
******************************
Total playing time: 15:13



Technical info
(IMG:https://metalarea.org/images/spectrogram/2024_Mar/59bd52edf5ef14fb9d917131f77ed1db.png)
Input File: 3.Eternal Darkness.mp3
Channels : 2
Sample Rate : 44100
Precision : 16-bit
Duration : 00:04:08.02 = 10937814 samples = 18601.7 CDDA sectors
File Size : 10.2M
Bit Rate : 330k
Sample Encoding: MPEG audio (layer I, II or III)
Comments :
Title=Eternal Darkness
Artist=Unholyscent
Album=Endless Torment
Tracknumber=3/5
Year=2024
Discnumber=1/1



Register


Go to the top of the page
  Insert nick Quick quote
+Quote Post
 
Start new topic
Replies (1 - 1)
post Jun 11 2024, 10:25:47
Post #2

Правь статус, ####!111
**************
Group: Металариец
Posts: 2,729
Releases: 425
From: Bretagne
On Forums: 16 years 1 month
Thanks: 5272 time(s)
France


excelent agressive & morbid black/death (IMG:style_emoticons/default/20.gif)
Go to the top of the page
  Insert nick Quick quote
+Quote Post

Reply to this topicStart new topic
2 User(s) are reading this topic (2 Guests and 0 Anonymous Users)
0 Members:

 



- Lo-Fi Version Support form
Copyrights and abuse reports form
Time is now: 23rd June 2024 - 02:48:41