Welcome Guest ( Log In | Register )

Объявления

* gmail.com упорно продолжает считать почту с нас "unsolicited" и отбивает в том числе и письма активации, поэтому просьба использовать альтернативные почтовые ящики.
------------
* gmail.com continues reject all mail from us as "unsolicited" (activation mails too) therefore please use alternate mail servers.
> Quo Vadis - Labirynth (2024), Progressive Death/Thrash Metal (D)
post Mar 2 2024, 08:18:07
Post #1

Правь статус, ####!111
**************
Group: Металариец
Posts: 8,952
Releases: 7190
On Forums: 13 years 6 months
Thanks: 126742 time(s)
Italy


(IMG:https://metalarea.org/images/audiocovers/2024_Mar/acov_tid393321_thumb.jpg)

*Artist: Quo Vadis
*Album: Labirynth
*Year: 2024
*Genre: Progressive Death/Thrash Metal
*Country: Poland (IMG:https://metalarea.org/forum/style_images/flags/Poland.png)
*Format: mp3@CBR320kbps
*Size: 123MB

Tracklist:
01.Universum 03:51
02.Watykan 03:47
03.Diabel Stroz 05:06
04.Czarnobyl 04:41
05.Gwozdzi Wor 05:06
06.Czlowiek Wszechmogacy 03:42
07.Gina 04:03
08.Cyrk 05:09
09.Labirynt 04:18
10.Wybralas 03:44
11.Szkarlatna Jak Krew 05:06
12.Morderca 03:17
******************************
Total playing time: 51:50

(IMG:https://metalarea.org/images/youtube.png)

Technical info
(IMG:https://metalarea.org/images/spectrogram/2024_Mar/4a6aa2fed31a1824f5ed5435112cff0a.png)
Input File: 7.Gina.mp3
Channels : 2
Sample Rate : 44100
Precision : 16-bit
Duration : 00:04:03.09 = 10720093 samples = 18231.5 CDDA sectors
File Size : 10.1M
Bit Rate : 333k
Sample Encoding: MPEG audio (layer I, II or III)
Comments :
Title=Gina
Artist=Quo Vadis
Album=Labirynth
Tracknumber=7/12
Year=2024
Discnumber=1/1



Register


This post has been edited by Emm Human: Mar 3 2024, 18:32:08


Go to the top of the page
  Insert nick Quick quote
+Quote Post
 
Start new topic
Replies (1 - 5)
post Mar 3 2024, 16:34:28
Post #2

Котеги! Нравяцо котеги?
**************
Group: Металариец
Posts: 8,162
Releases: 0
From: Терра Инкогнита
On Forums: 14 years 1 day
Thanks: 3901 time(s)
Russian Federation


О, курва, они опять на польском запели, это скорее плюс
Go to the top of the page
  Insert nick Quick quote
+Quote Post
post Mar 3 2024, 17:12:47
Post #3

Семь Литров
*******
Group: Металариец
Posts: 722
Releases: 1
On Forums: 16 years 2 weeks
Thanks: 438 time(s)
Russian Federation


И это те же люди, что когда то выпустили Defiant Imagination и Forever? И в каком углу здесь прогрессив?
Go to the top of the page
  Insert nick Quick quote
+Quote Post
post Mar 3 2024, 17:38:29
Post #4

Восемь Литров
********
Group: Металариец
Posts: 800
Releases: 0
On Forums: 5 years 3 weeks
Thanks: 339 time(s)
Ukraine


Это не те же люди. Перечисленные тобой альбомы записали канадские технари - прогрессивщики.
А это альбом старой группы из Польши.


Thanks:
Go to the top of the page
  Insert nick Quick quote
+Quote Post
post Mar 3 2024, 18:04:03
Post #5

Семь Литров
*******
Group: Металариец
Posts: 722
Releases: 1
On Forums: 16 years 2 weeks
Thanks: 438 time(s)
Russian Federation


ЦИТАТА(Cooperalex @ Mar 3 2024, 19:38:29) *
Это не те же люди. Перечисленные тобой альбомы записали канадские технари - прогрессивщики.
А это альбом старой группы из Польши.

Вот и я так подумал, но, ссылка в названии выводит на канадцев.
Go to the top of the page
  Insert nick Quick quote
+Quote Post
post Mar 3 2024, 18:32:41
Post #6

Трезвый мастер
Group Icon
Group: Moderation team
Posts: 4,981
Releases: 1
On Forums: 13 years 10 months
Thanks: 2868 time(s)
Russian Federation


ЦИТАТА(Strid @ Mar 4 2024, 01:04:03) *
Вот и я так подумал, но, ссылка в названии выводит на канадцев.

Fix.
Теперь на пшеков (IMG:style_emoticons/default/smile1.gif)


Thanks:
Go to the top of the page
  Insert nick Quick quote
+Quote Post

Reply to this topicStart new topic
2 User(s) are reading this topic (2 Guests and 0 Anonymous Users)
0 Members:

 



- Lo-Fi Version Support form
Copyrights and abuse reports form
Time is now: 28th May 2024 - 01:39:25