Welcome Guest ( Log In | Register )

Объявления

* gmail.com упорно продолжает считать почту с нас "unsolicited" и отбивает в том числе и письма активации, поэтому просьба использовать альтернативные почтовые ящики.
------------
* gmail.com continues reject all mail from us as "unsolicited" (activation mails too) therefore please use alternate mail servers.
> Before The Dawn - Archaic Flame [ep] (2024), Melodic Death/Gothic Metal (D)
post Mar 7 2024, 13:14:00
Post #1

Serial Uploader
Group Icon
Group: V.I.P
Posts: 42,989
Releases: 41047
From: Lithuania
On Forums: 16 years 1 month
Thanks: 527723 time(s)
Lithuania


(IMG:https://metalarea.org/images/audiocovers/2024_Mar/acov_tid393556_thumb.jpg)

*Artist: Before The Dawn
*Album: Archaic Flame [ep]
*Year: 2024
*Genre: Melodic Death/Gothic Metal
*Country: Finland (IMG:https://metalarea.org/forum/style_images/flags/Finland.png)
*Format: mp3@CBR320kbps
*Size: 36MB

Tracklist:
1. Archaic Flame 04:19
2. Chaos Sequence 03:25
3. Run to You (Bryan Adams cover) 03:42
4. Dying Sun (live) 03:15
******************************
Total playing time: 14:41

(IMG:https://metalarea.org/images/myspace.png)

Preview 3

(IMG:https://metalarea.org/images/youtube.png)

Technical info
(IMG:https://metalarea.org/images/spectrogram/2024_Mar/47637ce95d1b863c5dafba8205b78dae.png)
Input File: 02 - Chaos Sequence.mp3
Channels : 2
Sample Rate : 44100
Precision : 16-bit
Duration : 00:03:25.13 = 9046145 samples = 15384.6 CDDA sectors
File Size : 8.74M
Bit Rate : 341k
Sample Encoding: MPEG audio (layer I, II or III)
Comments :
Title=Chaos Sequence
Artist=Before The Dawn
Album=Archaic Flame
Tracknumber=2/4
Year=2024
Discnumber=1/1



Register


Go to the top of the page
  Insert nick Quick quote
+Quote Post
 
Start new topic
Replies (1 - 3)
post Mar 8 2024, 09:32:21
Post #2

Три Литра
***
Group: Завсегдатай
Posts: 265
Releases: 39
On Forums: 2 years 3 months
Thanks: 999 time(s)
Russian Federation


Неплохой ЕР, уже намного лучше прошлого альбома. Кавер прикольный, понравился. Лайв ни о чем.
Go to the top of the page
  Insert nick Quick quote
+Quote Post
post May 1 2024, 05:19:26
Post #3

मृत्यु
**************
Group: Металариец
Posts: 3,621
Releases: 24
On Forums: 14 years 3 days
Thanks: 2380 time(s)
Antarctica


Register
Go to the top of the page
  Insert nick Quick quote
+Quote Post
post Jul 10 2024, 10:51:10
Post #4

Правь статус, ####!111
**************
Group: Металариец
Posts: 4,873
Releases: 31
From: Holland
On Forums: 18 years 3 weeks
Thanks: 1980 time(s)
Netherlands


Прикольные песни. Нужно больше.
Go to the top of the page
  Insert nick Quick quote
+Quote Post

Reply to this topicStart new topic
2 User(s) are reading this topic (2 Guests and 0 Anonymous Users)
0 Members:

 



- Lo-Fi Version Support form
Copyrights and abuse reports form
Time is now: 24th July 2024 - 10:53:57