Welcome Guest ( Log In | Register )

Объявления

* gmail.com упорно продолжает считать почту с нас "unsolicited" и отбивает в том числе и письма активации, поэтому просьба использовать альтернативные почтовые ящики.
------------
* gmail.com continues reject all mail from us as "unsolicited" (activation mails too) therefore please use alternate mail servers.
> Isenordal - Requiem For Eir​ê​nê (2024), Funeral Doom/Pagan Black Metal/Neofolk
post Mar 7 2024, 18:51:57
Post #1

Правь статус, ####!111
**************
Group: Металариец
Posts: 7,573
Releases: 6926
From: Одесса
On Forums: 15 years 11 months
Thanks: 80687 time(s)
Ukraine


(IMG:https://metalarea.org/images/audiocovers/2024_Mar/acov_tid393595_thumb.jpg)

*Artist: Isenordal
*Album: Requiem For Eir​ê​nê
*Year: 2024
*Genre: Funeral Doom/Pagan Black Metal/Neofolk
*Country: United States (IMG:https://metalarea.org/forum/style_images/flags/United%20States.png)
*Format: mp3@CBR320kbps
*Size: 134MB

Tracklist:
1. A Moment Approaches Eternity 15:08
2. Await Me, Ultima Thule 11:31
3. Requiem for Eir​ê​nê 04:50
4. Epiphanies of Abhorrence and Futility 11:25
5. Saturnine Apotheosis 12:48
******************************
Total playing time: 55:42



Extended info
Line - up:

Jeff King - Cello, Bass
Eva Vonne - Viola, Vocals (Dead to a Dying World, Sans Soleil, ex-Sabbath Assembly)
Kerry Hall - Vocals, Guitars (Endorphins Lost)
Brian Hazard Spenser - Drums (Impulse Noise, Wilt, Endorphins Lost)
Lieu Wolfe - Piano, Organ (ex-Impulse Noise)
Gordon Greenwood - Guitars

ISENORDAL are different. Not fitting easily into the given stylistic drawers can often turn out to be both a blessing and a curse for a metal band. The six-piece from Seattle, WA in the United States is particularly hard to pin down. If push comes to shove, they could be described as a funeral doom act, although this hardly does their wide musical range justice. There are also notable influences of black metal, especially the harsh vocals but also the occasional vicious outbreaks of blizzard-riffs. Then again, the metal elements are diligently balanced by beautiful acoustic passages of American neofolk. On their third full-length, "Requiem for Eirênê", ISENORDAL have driven the interplay and cohesion of their musical core elements to a new level. The epic, meandering, and multi-faceted songs on this album each tell a dramatic story. Lead by various types of vocals, both female and male, that flow organically into each other, a wide array of instruments paints highly dynamic and lush sonic pictures. Each song of "Requiem for Eirênê" reveals a chapter of an overarching conceptual story that spans the whole of the album. The tale was written by drummer Brian Spenser and reflects personal experience that has been transformed into a profound mythological world, which is musically illustrated by ISENORDAL. In its course, the band is drawing from ancient myth, occultism, astrology, and the tarot among other symbolic systems to express a spiritual journey involving love, loss, grief in all its stages, hope, disappointment, exploitation, spiritual revelation, surrender, and finally, apotheosis. With "Requiem for Eirênê", ISENORDAL dare to face the curse that creating different and unique music can bring, and they conjure the blessing that an excitingly new and skilfully achieved magical sound may award. May the American funeral doom innovators reap the fruits of what they have so bravely sown!


Technical info
(IMG:https://metalarea.org/images/spectrogram/2024_Mar/d0b461d72dab5c2b3d288d912dfa63e6.png)
Input File: 02 - Await Me, Ultima Thule.mp3
Channels : 2
Sample Rate : 44100
Precision : 16-bit
Duration : 00:11:31.00 = 30473100 samples = 51825 CDDA sectors
File Size : 27.7M
Bit Rate : 320k
Sample Encoding: MPEG audio (layer I, II or III)
Comments :
Title=Await Me, Ultima Thule
Artist=Isenordal
Album=Requiem for Eirênê
Tracknumber=2
Year=2024-03-08
Genre=Funeral Doom | Pagan Black Metal | Neofolk



Register


Go to the top of the page
  Insert nick Quick quote
+Quote Post
 
Start new topic
Replies (1 - 4)
post Apr 2 2024, 18:47:56
Post #2

####!111
**************
Group: Металариец
Posts: 4,766
Releases: 146
From: The Mountain Of DOOM
On Forums: 16 years 7 months
Thanks: 7025 time(s)
Russian Federation


хорошая замена Lethian Dreams
Go to the top of the page
  Insert nick Quick quote
+Quote Post
post Apr 2 2024, 20:56:30
Post #3

хаос и порядок
******
Group: Металариец
Posts: 560
Releases: 0
From: Запорожье
On Forums: 14 years 1 month
Thanks: 307 time(s)
Ukraine


QUOTE(Un4given @ 2nd April 2024 - 20:47:56) *
хорошая замена Lethian Dreams
Если уж подбирать аналоги то скоре Shroud of Bereavement, только вместо неокласики неофолк.
Как по мне спокойно-меланхоличные Lethian Dreams мало похожи.
Go to the top of the page
  Insert nick Quick quote
+Quote Post
post Apr 27 2024, 09:52:41
Post #4

antithesis
**************
Group: Металариец
Posts: 4,104
Releases: 36
From: VRN
On Forums: 14 years 1 week
Thanks: 2709 time(s)
Russian Federation


reup pls
Go to the top of the page
  Insert nick Quick quote
+Quote Post
post Apr 27 2024, 14:15:54
Post #5

####!111
**************
Group: Металариец
Posts: 4,766
Releases: 146
From: The Mountain Of DOOM
On Forums: 16 years 7 months
Thanks: 7025 time(s)
Russian Federation


Register


Thanks:
Go to the top of the page
  Insert nick Quick quote
+Quote Post

Reply to this topicStart new topic
1 User(s) are reading this topic (1 Guests and 0 Anonymous Users)
0 Members:

 



- Lo-Fi Version Support form
Copyrights and abuse reports form
Time is now: 30th May 2024 - 20:12:53