Welcome Guest ( Log In | Register )

Объявления

* gmail.com упорно продолжает считать почту с нас "unsolicited" и отбивает в том числе и письма активации, поэтому просьба использовать альтернативные почтовые ящики.
------------
* gmail.com continues reject all mail from us as "unsolicited" (activation mails too) therefore please use alternate mail servers.
> Night Verses - Every Sound Has A Color In The Valley Of Night (2024), Instrumental/Progressive Metal (D4)
post Mar 14 2024, 16:13:13
Post #1

Serial Uploader
Group Icon
Group: V.I.P
Posts: 42,805
Releases: 40868
From: Lithuania
On Forums: 16 years 2 weeks
Thanks: 524471 time(s)
Lithuania


(IMG:https://metalarea.org/images/audiocovers/2024_Mar/acov_tid393940_thumb.jpg)

*Artist: Night Verses
*Album: Every Sound Has A Color In The Valley Of Night
*Year: 2024
*Genre: Instrumental/Progressive Metal
*Country: United States (IMG:https://metalarea.org/forum/style_images/flags/United%20States.png)
*Format: mp3@CBR320kbps
*Size: 150MB

Tracklist:
01. 8 Gates Of Pleasure 5:51
02. Arrival 3:48
03. Rose Wire 3:33
04. Karma Wheel 4:50
05. Love In A Liminal Space 5:06
06. Bound To You 5:09
07. Séance (Feat. Justin Chancellor Of Tool) 5:14
08. Plague Dancer 3:33
09. Aska (Feat. Author & Punisher) 2:29
10. Glitching Prisms (Feat. Brandon Boyd Of Incubus) 3:30
11. Desire To Feel Nothing 5:03
12. Crystal X 3:45
13. Slow Dose (Anthony Green Of Circa Survive) 4:24
14. Phoenix V: Invocation 8:39
******************************
Total playing time: 1:04:54


Preview 2

(IMG:https://metalarea.org/images/youtube.png)

Technical info
(IMG:https://metalarea.org/images/spectrogram/2024_Mar/bb41da7f6883de7a7979650e2cbcd671.png)
Input File: 02 - Arrival.mp3
Channels : 2
Sample Rate : 44100
Precision : 16-bit
Duration : 00:03:48.51 = 10077071 samples = 17137.9 CDDA sectors
File Size : 9.23M
Bit Rate : 323k
Sample Encoding: MPEG audio (layer I, II or III)
Comments :
Title=Arrival
Artist=Night Verses
Album=Every Sound Has A Color In The Valley Of Night
Tracknumber=2/14
Year=2024
Genre=17
Discnumber=1/1



Register


Go to the top of the page
  Insert nick Quick quote
+Quote Post
 
Start new topic
Replies (1 - 1)
post Jun 11 2024, 12:28:41
Post #2

Group: Подсевший
Posts: 48
Releases: 0
On Forums: 2 weeks 1 day
Thanks: 6 time(s)
Unknown


Крутой альбом, особенно первые два трека.
Go to the top of the page
  Insert nick Quick quote
+Quote Post

Reply to this topicStart new topic
2 User(s) are reading this topic (2 Guests and 0 Anonymous Users)
0 Members:

 



- Lo-Fi Version Support form
Copyrights and abuse reports form
Time is now: 23rd June 2024 - 02:17:22