Welcome Guest ( Log In | Register )

Объявления

* gmail.com упорно продолжает считать почту с нас "unsolicited" и отбивает в том числе и письма активации, поэтому просьба использовать альтернативные почтовые ящики.
------------
* gmail.com continues reject all mail from us as "unsolicited" (activation mails too) therefore please use alternate mail servers.
> Hideous Divinity - Unextinct (2024), Technical Death Metal
post Mar 21 2024, 03:24:21
Post #1

Правь статус, ####!111
**************
Group: Металариец
Posts: 36,179
Releases: 26973
From: Г.Харьков
On Forums: 12 years 1 month
Thanks: 586079 time(s)
Ukraine


(IMG:https://metalarea.org/images/audiocovers/2024_Mar/acov_tid394270_thumb.jpg)

*Artist: Hideous Divinity
*Album: Unextinct
*Year: 2024
*Genre: Technical Death Metal
*Country: Italy (IMG:https://metalarea.org/forum/style_images/flags/Italy.png)
*Format: mp3@CBR320kbps
*Size: 135MB

Tracklist:
1. Dust Settles on Humanity 01:50
2. The Numinous One 07:02
3. Against the Sovereignty of Mankind 05:36
4. Atto quarto, the Horror Paradox 08:40
5. Quasi-Sentient 05:03
6. Hair, Dirt, Mud 02:23
7. More than Many, Never One 06:15
8. Der verlorene Sohn 01:12
9. Mysterium Tremendum 04:33
10. Leben ohne Feuer 08:26
******************************
Total playing time: 51:00



Extended info
Enrico Schettino Guitars (2007-present)
See also: Patristic, ex-Hour of Penance
Enrico "H." Di Lorenzo Vocals (2010-present)
See also: Eyeconoclast, ex-Chthonian Nemeton, ex-Ebola, ex-The Last Winter, ex-Airlines of Terror
Stefano Franceschini Bass (2013-present)
See also: Hammer of Dawn, Ghouls, ex-Aborted
Edoardo Di Santo Drums (2023-present)
See also: Ade, Enforces, Instigate, Shaula, Voltumna, ex-Edoardo Di Santo, ex-Extremity Obsession, ex-Deceptionist


Technical info
(IMG:https://metalarea.org/images/spectrogram/2024_Mar/bb8c3950074efeb9958876b37f18bc4f.png)
Input File: 07. More than Many, Never One.mp3
Channels : 2
Sample Rate : 44100
Precision : 16-bit
Duration : 00:06:15.09 = 16541469 samples = 28131.7 CDDA sectors
File Size : 16.9M
Bit Rate : 361k
Sample Encoding: MPEG audio (layer I, II or III)
Comments :
Title=More than Many, Never One
Artist=Hideous Divinity
Album=Unextinct
Tracknumber=7/10
Year=2024
Genre=Technical Death
Discnumber=1/1



Register


Go to the top of the page
  Insert nick Quick quote
+Quote Post
 
Start new topic
Replies (1 - 8)
post Mar 21 2024, 10:40:10
Post #2

Два Литра
**
Group: Завсегдатай
Posts: 120
Releases: 0
From: Сыктывкар
On Forums: 7 years 1 week
Thanks: 27 time(s)
Russian Federation


это я люблю...
Go to the top of the page
  Insert nick Quick quote
+Quote Post
post Mar 21 2024, 11:37:07
Post #3

Правь статус, ####!111
**************
Group: Металариец
Posts: 36,179
Releases: 26973
From: Г.Харьков
On Forums: 12 years 1 month
Thanks: 586079 time(s)
Ukraine


FLAC Scene CD (Tracks) 398 mb
Register


Go to the top of the page
  Insert nick Quick quote
+Quote Post
post Mar 21 2024, 12:11:41
Post #4

Три Литра
***
Group: Завсегдатай
Posts: 228
Releases: 1
From: Переделкино
On Forums: 15 years 7 months
Thanks: 22 time(s)
Russian Federation


Бляха муха, а на эйпл мюзик нету этой бомбы (IMG:style_emoticons/default/6.gif)
Go to the top of the page
  Insert nick Quick quote
+Quote Post
post Mar 21 2024, 14:31:56
Post #5

Glorious Imperator
**********
Group: Металариец
Posts: 1,114
Releases: 0
From: Sweden
On Forums: 15 years 3 months
Thanks: 66 time(s)
Sweden


Thank you.
Go to the top of the page
  Insert nick Quick quote
+Quote Post
post Mar 22 2024, 08:27:56
Post #6

Маньяк
**********
Group: Металариец
Posts: 1,210
Releases: 0
From: Нижний Новгород
On Forums: 17 years 10 months
Thanks: 479 time(s)
Russian Federation


Современный техно-дэт с атмосферной подложкой. Ничего нового в части музыкальных приёмов не обнаружено. Почему-то (пока не вникал) сразу припомнился Hour Of Penance от 17 года. В каждой композиции рассказывается какая-то история/тема, а м.б. даже музыканты стараются протащить через весь альбом схожие темы.
Хорошо скомпонованная, уверенная и слаженная работа музыкантов.
Кто-то, наверное, скажет, что слишком стерильно, а кто-то - добротная работа от профессионалов.
По первым впечатлениям кактотак.


Go to the top of the page
  Insert nick Quick quote
+Quote Post
post May 6 2024, 17:30:07
Post #7

मृत्यु
**************
Group: Металариец
Posts: 3,610
Releases: 24
On Forums: 13 years 10 months
Thanks: 2361 time(s)
Antarctica


Register


Thanks:
Go to the top of the page
  Insert nick Quick quote
+Quote Post
post Jun 11 2024, 09:04:16
Post #8

Group: Подсевший
Posts: 45
Releases: 0
On Forums: 1 week 3 days
Thanks: 5 time(s)
Unknown


Реабилитировались после безвкусного предыдущего альбома. Отличный, атмосферный, интересный и, как всегда, качественный альбом.
Go to the top of the page
  Insert nick Quick quote
+Quote Post
post Jun 11 2024, 12:45:07
Post #9

Ледоруб
**************
Group: Металариец
Posts: 33,650
Releases: 0
From: Санкт-Петербург
On Forums: 14 years 9 months
Thanks: 11753 time(s)
Russian Federation


ЦИТАТА(Terrorizer @ 22nd March 2024 - 10:27:56) *
Hour Of Penance от 17 года.

Дэткор есть?
Go to the top of the page
  Insert nick Quick quote
+Quote Post

Reply to this topicStart new topic
2 User(s) are reading this topic (2 Guests and 0 Anonymous Users)
0 Members:

 



- Lo-Fi Version Support form
Copyrights and abuse reports form
Time is now: 17th June 2024 - 23:02:10