Welcome Guest ( Log In | Register )

Объявления

* gmail.com упорно продолжает считать почту с нас "unsolicited" и отбивает в том числе и письма активации, поэтому просьба использовать альтернативные почтовые ящики.
------------
* gmail.com continues reject all mail from us as "unsolicited" (activation mails too) therefore please use alternate mail servers.
> Thvn - Zgnij (2024), Sludge/Death/Black Metal
post Mar 21 2024, 13:49:14
Post #1

Serial Uploader
Group Icon
Group: V.I.P
Posts: 42,778
Releases: 40841
From: Lithuania
On Forums: 16 years 1 week
Thanks: 523936 time(s)
Lithuania


(IMG:https://metalarea.org/images/audiocovers/2024_Mar/acov_tid394293_thumb.jpg)

*Artist: Thvn
*Album: Zgnij
*Year: 2024
*Genre: Sludge/Death/Black Metal
*Country: Poland (IMG:https://metalarea.org/forum/style_images/flags/Poland.png)
*Format: mp3@CBR320kbps
*Size: 79MB

Tracklist:
1. Caprimulgus 00:52
2. Self-Abuse 04:36
3. Beauty Of Decay 07:36
4. Mouth Of Madness 04:11
5. Heat 08:16
6. Iłża 06:47
7. ...And I Will Rot 01:33
******************************
Total playing time: 33:51



(IMG:https://metalarea.org/images/youtube.png)

Technical info
(IMG:https://metalarea.org/images/spectrogram/2024_Mar/564da350ea8f91292e9f8655d2fd2439.png)
Input File: 02. Self-Abuse.mp3
Channels : 2
Sample Rate : 44100
Precision : 16-bit
Duration : 00:04:36.05 = 12173981 samples = 20704 CDDA sectors
File Size : 11.3M
Bit Rate : 327k
Sample Encoding: MPEG audio (layer I, II or III)
Comments :
Title=Self-Abuse
Artist=Thvn
Album=Zgnij
Tracknumber=2
Year=2024
Genre=Bkacj Metal, Death/Doom
Discnumber=1



Register


Go to the top of the page
  Insert nick Quick quote
+Quote Post
 
Start new topic
Replies (1 - 2)
post May 11 2024, 13:47:12    Сейчас играет: Lux Ferre - A Luz Ofuscante Da Verdade
Post #2

antithesis
**************
Group: Металариец
Posts: 4,188
Releases: 36
From: VRN
On Forums: 14 years 4 weeks
Thanks: 2722 time(s)
Russian Federation


reup pls
Go to the top of the page
  Insert nick Quick quote
+Quote Post
post May 15 2024, 16:54:39
Post #3

Русский
********
Group: Металариец
Posts: 837
Releases: 0
From: Москва
On Forums: 17 years 9 months
Thanks: 263 time(s)
Russian Federation


ЦИТАТА(Razorbladeswaltz @ May 11 2024, 15:47:12) *
reup pls



Register


Thanks:
(2) Korpse, Radek,
Go to the top of the page
  Insert nick Quick quote
+Quote Post

Reply to this topicStart new topic
1 User(s) are reading this topic (1 Guests and 0 Anonymous Users)
0 Members:

 



- Lo-Fi Version Support form
Copyrights and abuse reports form
Time is now: 20th June 2024 - 10:48:56