Welcome Guest ( Log In | Register )

Объявления

* gmail.com упорно продолжает считать почту с нас "unsolicited" и отбивает в том числе и письма активации, поэтому просьба использовать альтернативные почтовые ящики.
------------
* gmail.com continues reject all mail from us as "unsolicited" (activation mails too) therefore please use alternate mail servers.

> Forum rules / Правила раздела

Here go releases which can't go to New releases forums due lack of information, stolen links or incorrect data and just founded in other sites links with minimum info. Reissue of this releases through Add release form with added/corrected data, info and own links highly welcomed.

Сюда уходят релизы, не пропущенные в основные релизные форумы по причинам отсутствия, недостаточности или неверности/некорректности сопровождающей информации, содержащие ссылки, указывающие на файлы, залитые не автором темы, а так же просто найденные где-то ссылки с минимумом информации. Переоформление тем отсюда через форму Добавления релиза с перезаливкой ссылок крайне приветствуется.

 
Reply to this topicStart new topic
> Flaming Skull - The Bloody Tales Of The Skull - Chapter II [ep] (2021), Death Metal
post Mar 22 2024, 11:20:27
Post #1

Два Литра
**
Group: Завсегдатай
Posts: 114
Releases: 16
On Forums: 15 years 5 months
Thanks: 258 time(s)
Russian Federation


(IMG:https://metalarea.org/images/audiocovers/2024_Mar/acov_tid394348_thumb.jpg)

*Artist: Flaming Skull
*Album: The Bloody Tales Of The Skull - Chapter II [ep]
*Year: 2021
*Genre: Death Metal
*Country: Colombia (IMG:https://metalarea.org/forum/style_images/flags/Colombia.png)
*Format: mp3@CBR320kbps
*Size: 74MB

Tracklist:
1. Domination (Pantera cover) (5:04)
2. Blinded by Fear (At the Gates cover) (2:31)
3. Behind Space '99 (In Flames cover) (3:36)
4. Desperate Cry (Sepultura cover) (6:42)
5. Desolation (5:02)
6. Macara de Guerra (live) (4:08)
7. A Sangre Fria (live) (5:37)
******************************
Total playing time: 32:40

Preview 1

Extended info


Technical info
(IMG:https://metalarea.org/images/spectrogram/2024_Mar/10707b513534badbb68f3083e1a200fe.png)
Input File: 02. Blinded by Fear (At the Gates cover).mp3
Channels : 2
Sample Rate : 44100
Precision : 16-bit
Duration : 00:02:30.61 = 6641769 samples = 11295.5 CDDA sectors
File Size : 6.02M
Bit Rate : 320k
Sample Encoding: MPEG audio (layer I, II or III)
Comments :
Title=Blinded by Fear (At the Gates cover)
Artist=Flaming Skull
Album=The Bloody Tales of the Skull - Chapter II
Tracknumber=02/07
Year=2021
Genre=Death Metal



Register


Go to the top of the page
  Insert nick Quick quote
+Quote Post

Reply to this topicStart new topic
2 User(s) are reading this topic (2 Guests and 0 Anonymous Users)
0 Members:

 



- Lo-Fi Version Support form
Copyrights and abuse reports form
Time is now: 20th June 2024 - 17:26:09