Welcome Guest ( Log In | Register )

Объявления

* gmail.com упорно продолжает считать почту с нас "unsolicited" и отбивает в том числе и письма активации, поэтому просьба использовать альтернативные почтовые ящики.
------------
* gmail.com continues reject all mail from us as "unsolicited" (activation mails too) therefore please use alternate mail servers.

> Forum rules / Правила раздела

Here go releases which can't go to New releases forums due lack of information, stolen links or incorrect data and just founded in other sites links with minimum info. Reissue of this releases through Add release form with added/corrected data, info and own links highly welcomed.

Сюда уходят релизы, не пропущенные в основные релизные форумы по причинам отсутствия, недостаточности или неверности/некорректности сопровождающей информации, содержащие ссылки, указывающие на файлы, залитые не автором темы, а так же просто найденные где-то ссылки с минимумом информации. Переоформление тем отсюда через форму Добавления релиза с перезаливкой ссылок крайне приветствуется.

> Sopor Aeternus & The Ensemble Of Shadows - Fab Dead Cult Veil (2024), Neoclassical Dark Wave (D15)
post Mar 22 2024, 16:49:27
Post #1

:3
**************
Group: Металариец
Posts: 5,132
Releases: 106
On Forums: 16 years 8 months
Thanks: 4308 time(s)
Russian Federation


(IMG:https://metalarea.org/images/audiocovers/2024_Mar/acov_tid394360_thumb.jpg)

*Artist: Sopor Aeternus & The Ensemble Of Shadows
*Album: Fab Dead Cult Veil
*Year: 2024
*Genre: Neoclassical Dark Wave
*Country: Germany (IMG:https://metalarea.org/forum/style_images/flags/Germany.png)
*Format: mp3@VBR265kbps
*Size: 46MB

Tracklist:
01 - The Fabulous 5:45
02 - The Pumpkins 5:24
03 - The Ghosts 6:22
04 - The Dead 6:00
******************************
Total playing time: 23:31



Technical info
(IMG:https://metalarea.org/images/spectrogram/2024_Mar/d9ec2b01f3af721df6b1ac9e4563481d.png)
Input File: 02 - The Pumpkins.mp3
Channels : 2
Sample Rate : 44100
Precision : 16-bit
Duration : 00:05:23.66 = 14273274 samples = 24274.3 CDDA sectors
File Size : 11.1M
Bit Rate : 273k
Sample Encoding: MPEG audio (layer I, II or III)
Comments :
Title=The Pumpkins
Artist=Sopor Aeternus & The Ensemble of Shadows
Album=Fab Dead Cult Veil
Tracknumber=2/4
Year=29-0
Genre=Hard Rock
Discnumber=1



Register


Go to the top of the page
  Insert nick Quick quote
+Quote Post
 
Start new topic
Replies (1 - 2)
post Mar 22 2024, 18:09:57
Post #2

:3
**************
Group: Металариец
Posts: 5,132
Releases: 106
On Forums: 16 years 8 months
Thanks: 4308 time(s)
Russian Federation


What can I tell you about the ghosts? (IMG:style_emoticons/default/pray.gif)
Go to the top of the page
  Insert nick Quick quote
+Quote Post
post Mar 23 2024, 09:26:38
Post #3
BAN
Banned till
Jun 13 2024, 13:51:31



Разошолсо! (IMG:style_emoticons/default/crazy.gif)
Go to the top of the page
  Insert nick Quick quote
+Quote Post

Reply to this topicStart new topic
2 User(s) are reading this topic (2 Guests and 0 Anonymous Users)
0 Members:

 



- Lo-Fi Version Support form
Copyrights and abuse reports form
Time is now: 13th June 2024 - 08:52:36