Welcome Guest ( Log In | Register )

Объявления

* gmail.com упорно продолжает считать почту с нас "unsolicited" и отбивает в том числе и письма активации, поэтому просьба использовать альтернативные почтовые ящики.
------------
* gmail.com continues reject all mail from us as "unsolicited" (activation mails too) therefore please use alternate mail servers.
> Zmey Gorynich - Морозобой (Лѣта 7532-го) [single] (2024), Folk Metal/Deathcore (D8)
post Mar 23 2024, 11:01:43
Post #1

Правь статус, ####!111
**************
Group: Металариец
Posts: 55,949
Releases: 1198
On Forums: 14 years 11 months
Thanks: 54782 time(s)
Russian Federation


(IMG:https://metalarea.org/images/audiocovers/2024_Mar/acov_tid394394_thumb.jpg)

*Artist: Zmey Gorynich
*Album: Морозобой (Лѣта 7532-го) [single]
*Year: 2024
*Genre: Folk Metal/Deathcore
*Country: Russian Federation (IMG:https://metalarea.org/forum/style_images/flags/Russian%20Federation.png)
*Format: mp3@CBR320kbps
*Size: 8MB

Tracklist:
1. Морозобой (Лѣта 7532-го) 03:24
******************************
Total playing time: 3:24

Technical info
(IMG:https://metalarea.org/images/spectrogram/2024_Mar/66522446324d308b438a6ec7f5071e43.png)
Input File: 01. Морозобой (Лѣта 7532-го).mp3
Channels : 2
Sample Rate : 44100
Precision : 16-bit
Duration : 00:03:24.65 = 9025021 samples = 15348.7 CDDA sectors
File Size : 8.19M
Bit Rate : 320k
Sample Encoding: MPEG audio (layer I, II or III)
Comments :
Title=Морозобой (Лѣта 7532-го)
Artist=Zmey Gorynich
Tracknumber=1
Year=2024
Genre=Folk Metal



Register


Go to the top of the page
  Insert nick Quick quote
+Quote Post
 
Start new topic
Replies (1 - 1)
post Mar 23 2024, 15:40:09
Post #2

Ёлд ХеллоВяйне
Group Icon
Group: V.I.P
Posts: 34,828
Releases: 143
From: Питер
On Forums: 17 years 6 months
Thanks: 21974 time(s)
Russian Federation




Thanks:
Go to the top of the page
  Insert nick Quick quote
+Quote Post

Reply to this topicStart new topic
2 User(s) are reading this topic (2 Guests and 0 Anonymous Users)
0 Members:

 



- Lo-Fi Version Support form
Copyrights and abuse reports form
Time is now: 24th May 2024 - 20:27:29