Welcome Guest ( Log In | Register )

Объявления

* gmail.com упорно продолжает считать почту с нас "unsolicited" и отбивает в том числе и письма активации, поэтому просьба использовать альтернативные почтовые ящики.
------------
* gmail.com continues reject all mail from us as "unsolicited" (activation mails too) therefore please use alternate mail servers.
> Мёртвая Вера - Оранжевое Солнце (Краски Cover) [single] (2023), Thrash/Death Metal
post Mar 23 2024, 11:30:08
Post #1

Правь статус, ####!111
**************
Group: Металариец
Posts: 55,949
Releases: 1198
On Forums: 14 years 11 months
Thanks: 54782 time(s)
Russian Federation


(IMG:https://metalarea.org/images/audiocovers/2024_Mar/acov_tid394398_thumb.jpg)

*Artist: Мёртвая Вера
*Album: Оранжевое Солнце (Краски Cover) [single]
*Year: 2023
*Genre: Thrash/Death Metal
*Country: Russian Federation (IMG:https://metalarea.org/forum/style_images/flags/Russian%20Federation.png)
*Format: mp3@CBR320kbps
*Size: 16MB

Tracklist:
1. Оранжевое Солнце (Краски Cover)
2. Оранжевое Солнце (Краски Cover) (Karaoke Version)
******************************
Total playing time: 6:58

Technical info
(IMG:https://metalarea.org/images/spectrogram/2024_Mar/442e7bbf9118c243e228d2ef75f48ed7.png)
Input File: 01. Оранжевое Солнце (Краски Cover).mp3
Channels : 2
Sample Rate : 44100
Precision : 16-bit
Duration : 00:03:29.54 = 9240802 samples = 15715.6 CDDA sectors
File Size : 8.38M
Bit Rate : 320k
Sample Encoding: MPEG audio (layer I, II or III)
Comments :
Title=Оранжевое Солнце
Artist=Мёртвая Вера
Album=Оранжевое Солнце
Tracknumber=1
Year=2023
Genre=Dance Hall



Register


Go to the top of the page
  Insert nick Quick quote
+Quote Post
 
Start new topic
Replies (1 - 1)
post Mar 23 2024, 15:50:05
Post #2

Ёлд ХеллоВяйне
Group Icon
Group: V.I.P
Posts: 34,828
Releases: 143
From: Питер
On Forums: 17 years 6 months
Thanks: 21974 time(s)
Russian Federation




Но до этого шедевра не дотягивает:



Go to the top of the page
  Insert nick Quick quote
+Quote Post

Reply to this topicStart new topic
2 User(s) are reading this topic (2 Guests and 0 Anonymous Users)
0 Members:

 



- Lo-Fi Version Support form
Copyrights and abuse reports form
Time is now: 24th May 2024 - 20:55:52